<?xml version="1.0" standalone="no"?>
<!DOCTYPE svg PUBLIC "-//W3C//DTD SVG 1.1//EN" "http://www.w3.org/Graphics/SVG/1.1/DTD/svg11.dtd" >
<svg>
<metadata>
Created by FontForge 20120731 at Mon Oct 20 01:39:00 2014
 By Orthosie Webhosting
Typeface (c) The Monotype Corporation plc. Data (c) The Monotype Corporation plc/Type Solutions Inc. 1990-91-92 All Rights Reserved. Portions (c) 1992 Microsoft Corp.
</metadata>
<defs>
<font id="Centaur" horiz-adv-x="1366" >
  <font-face 
    font-family="Centaur"
    font-weight="400"
    font-stretch="normal"
    units-per-em="2048"
    panose-1="2 3 5 4 5 2 5 2 3 4"
    ascent="1638"
    descent="-410"
    x-height="737"
    cap-height="1296"
    bbox="-373 -575 2234 1869"
    underline-thickness="102"
    underline-position="-154"
    unicode-range="U+0020-F002"
  />
<missing-glyph horiz-adv-x="1536" 
d="M0 0v1280h1024v-1280h-1024zM32 32h960v1216h-960v-1216z" />
    <glyph glyph-name=".notdef" horiz-adv-x="1536" 
d="M0 0v1280h1024v-1280h-1024zM32 32h960v1216h-960v-1216z" />
    <glyph glyph-name="glyph1" horiz-adv-x="0" 
 />
    <glyph glyph-name="glyph2" horiz-adv-x="502" 
 />
    <glyph glyph-name="space" unicode=" " horiz-adv-x="502" 
 />
    <glyph glyph-name="exclam" unicode="!" horiz-adv-x="426" 
d="M229 334l-41 6q9 203 9 500q0 121 -4 161q-6 40 -27 52q-23 17 -23 24q0 14 21 17q18 6 182 69q12 0 12 -14q0 -10 -2 -19l-94 -571q-6 -34 -29 -203q-4 -4 -4 -22zM78 90q0 14 26 31q44 23 76 82q11 16 27 16q17 0 26 -16t9 -23q38 -51 65 -65q18 -8 21.5 -13t3.5 -16
q0 -15 -17 -25q-44 -20 -79 -77q-14 -23 -29 -23q-17 0 -31 21q-18 33 -31.5 48t-44.5 31q-14 10 -18 14t-4 15z" />
    <glyph glyph-name="quotedbl" unicode="&#x22;" horiz-adv-x="897" 
d="M270 696h-43l-53 295q-10 56 -16 94t-6 72q0 123 96 123q30 0 53.5 -14t37 -37.5t13.5 -54.5q0 -42 -20 -150zM666 696h-43l-54 295q-10 56 -16 94t-6 72q0 123 96 123q30 0 54 -14t37.5 -37.5t13.5 -54.5q0 -37 -21 -150z" />
    <glyph glyph-name="numbersign" unicode="#" 
d="M55 920v94h359l94 444h92l-94 -444h487l92 444h95l-95 -444h228v-94h-246l-90 -435h336v-94h-357l-90 -442h-94l92 442h-489l-88 -442h-97l93 442h-228v94h248l90 435h-338zM885 485l90 435h-490l-90 -435h490z" />
    <glyph glyph-name="dollar" unicode="$" horiz-adv-x="1004" 
d="M477 1376h49v-94q205 0 330 -131q-71 -71 -92 -141l-37 4q4 96 -58.5 155t-142.5 66l-2 -481q136 -78 203 -125t115.5 -116.5t48.5 -160.5q0 -76 -40 -155t-125.5 -135t-207.5 -62l2 -133q0 -21 -12 -21q-39 0 -37 21v133q-89 7 -181 54.5t-208 205.5l108 156l31 -23
q-10 -22 -10 -55q0 -24 21 -87.5t79.5 -127t159.5 -76.5l2 565q-39 22 -105 60.5t-114.5 81t-78.5 99.5t-30 126q0 68 39.5 135t115.5 114t175 54zM475 780l2 457q-113 -7 -166 -62t-53 -131q0 -87 58.5 -145t158.5 -119zM522 586l-2 -545q114 10 176 58.5t82.5 103
t20.5 88.5q0 82 -68 153.5t-209 141.5z" />
    <glyph glyph-name="percent" unicode="%" horiz-adv-x="1665" 
d="M416 1323q79 0 147.5 -40t110 -113.5t41.5 -165.5q0 -85 -36.5 -166.5t-106.5 -134t-166 -52.5q-82 0 -151.5 38t-111 111.5t-41.5 174.5q0 100 42.5 179.5t116 124t155.5 44.5zM399 1282q-61 0 -103 -38.5t-62.5 -100.5t-20.5 -131q0 -127 57.5 -223.5t147.5 -96.5
q36 0 77 21.5t72 82.5t31 167q0 122 -51 220.5t-148 98.5zM1278 635q81 0 150 -41.5t110 -116t41 -164.5q0 -61 -20 -124t-61 -115.5t-99.5 -82.5t-130.5 -30q-79 0 -149.5 38.5t-112 112t-41.5 173.5q0 152 92.5 251t220.5 99zM1262 592q-62 0 -104 -39t-62.5 -99.5
t-20.5 -131.5q0 -61 15.5 -118.5t43 -102.5t66 -71t82.5 -26q63 0 121.5 58.5t58.5 211.5q0 75 -22.5 148.5t-67 121.5t-110.5 48zM379 -98l-35 14q52 74 155.5 236t207.5 331t182.5 302.5t109.5 189.5q41 74 72.5 130.5t116.5 207.5l22 35q34 0 53 2.5t46 11.5
q-148 -233 -273 -439t-229.5 -381t-207.5 -353.5t-136 -243.5q-52 -3 -84 -43z" />
    <glyph glyph-name="ampersand" unicode="&#x26;" horiz-adv-x="1300" 
d="M1202 897l-4 -33q-46 -2 -68.5 -15t-44.5 -51t-65 -134q-50 -111 -79 -175.5t-52 -109.5q-26 -45 -31 -57q27 -71 61 -130t72.5 -95t75.5 -36q68 0 133 119q23 38 27 43.5t14 5.5q7 0 14 -5.5t7 -14.5q-15 -54 -73.5 -135.5t-174.5 -81.5q-57 0 -102.5 34t-77 81
t-56.5 96q-58 -84 -120.5 -131.5t-128.5 -66.5t-138 -19q-109 0 -180.5 51.5t-105 130.5t-33.5 158q0 147 83 233.5t181 138.5q-80 47 -116 112t-36 118q0 86 63 146t134 91t86 31q12 0 36 -12.5t55 -32.5t44 -31q35 -27 55.5 -71.5t20.5 -92.5q0 -45 -10 -65t-64 -74
q-13 -17 -37 -41.5t-45 -46.5q76 -38 119.5 -70.5t87 -94.5t98.5 -177q5 11 32 62t30 59q35 63 72.5 170t44.5 170q-13 19 -29 32.5t-59 32.5l14 33q53 -18 132.5 -31.5t137.5 -17.5zM467 760q51 26 84 67.5t33 92.5q0 41 -28.5 85t-73 72.5t-91.5 28.5q-54 0 -99.5 -50
t-45.5 -89q0 -51 59.5 -112t161.5 -95zM385 668q-109 -74 -150.5 -129.5t-41.5 -139.5q0 -139 57.5 -210.5t121 -90t103.5 -18.5q82 0 151.5 44t125.5 132l-9 18q-35 83 -67.5 144.5t-71 107t-90.5 80.5t-129 62z" />
    <glyph glyph-name="quotesingle" unicode="'" horiz-adv-x="385" 
d="M211 696h-43l-53 295q-23 117 -23 166q0 123 96 123q29 0 53 -13.5t38 -37.5t14 -55q0 -50 -21 -150z" />
    <glyph glyph-name="parenleft" unicode="(" horiz-adv-x="682" 
d="M631 -520l-31 -51q-135 86 -233.5 186.5t-166 222.5t-100 260.5t-32.5 298.5q0 179 42 336t116 277.5t169 210t209 155.5l25 -51q-114 -67 -226 -179t-194 -300t-82 -436q0 -183 44.5 -336t118.5 -264.5t158.5 -188t182.5 -141.5z" />
    <glyph glyph-name="parenright" unicode=")" horiz-adv-x="682" 
d="M55 1325l31 51q268 -168 400 -408t132 -560q0 -185 -42 -338t-115.5 -274.5t-168 -211t-210.5 -155.5l-25 51q114 67 226 179.5t194 300t82 435.5q0 190 -44 339t-117 260t-160 191t-183 140z" />
    <glyph glyph-name="asterisk" unicode="*" horiz-adv-x="725" 
d="M33 1130l18 33q122 -53 230 -59q46 95 63 229h37q9 -84 25 -132t38 -97q102 5 232 59l16 -33q-109 -83 -164 -169q54 -85 164 -168l-16 -33q-125 53 -232 59q-48 -98 -63 -229h-37q-17 134 -63 229q-113 -9 -230 -59l-18 33q108 79 164 168q-55 88 -164 169zM233 961
q0 -52 37 -91t92 -39q56 0 93 39t37 91t-37 91.5t-93 39.5q-55 0 -92 -39.5t-37 -91.5z" />
    <glyph glyph-name="plus" unicode="+" 
d="M111 651v94h524v529h94v-529h528v-94h-528v-522h-94v522h-524z" />
    <glyph glyph-name="comma" unicode="," horiz-adv-x="406" 
d="M82 -229l-21 32q61 39 96.5 72t35.5 84q0 61 -58 102q-26 22 -31.5 29t-5.5 27q70 37 95 123q14 0 22 2q25 -57 70 -80q25 -11 32 -16.5t7 -16.5q0 -7 -27 -61l-4 -31q-17 -107 -79 -169t-132 -97z" />
    <glyph glyph-name="hyphen" unicode="-" horiz-adv-x="641" 
d="M72 330v108h495v-108h-495z" />
    <glyph glyph-name="hyphen" unicode="&#xad;" horiz-adv-x="641" 
d="M72 330v108h495v-108h-495z" />
    <glyph glyph-name="period" unicode="." horiz-adv-x="406" 
d="M78 90q0 14 26 31q44 23 76 82q11 16 27 16q17 0 26 -16t9 -23q38 -51 65 -65q18 -8 21.5 -13t3.5 -16q0 -15 -17 -25q-44 -20 -79 -77q-14 -23 -29 -23q-17 0 -31 21q-18 33 -31.5 48t-44.5 31q-14 10 -18 14t-4 15z" />
    <glyph glyph-name="slash" unicode="/" horiz-adv-x="1087" 
d="M59 -297l875 1817h94l-876 -1817h-93z" />
    <glyph glyph-name="zero" unicode="0" horiz-adv-x="1004" 
d="M53 612q0 212 67.5 363.5t173.5 228t220 76.5q98 0 179.5 -48.5t138.5 -135.5t87.5 -202t30.5 -249q0 -185 -56 -335t-161 -236t-244 -86q-134 0 -234 89t-151 232.5t-51 302.5zM203 705q0 -65 8.5 -168t39.5 -219t96 -197.5t171 -81.5q98 0 162 74t92.5 190t28.5 250
q0 94 -16 242.5t-72 269.5q-18 39 -44.5 74.5t-72.5 63.5t-102 28q-44 0 -91 -19.5t-94 -77t-76.5 -162.5t-29.5 -267z" />
    <glyph glyph-name="one" unicode="1" horiz-adv-x="1004" 
d="M215 -10l-2 43q71 0 122.5 18.5t67.5 73.5q13 43 20.5 179.5t10 280.5t2.5 275q0 232 -10 273q-9 41 -60.5 51t-146.5 10l-2 39q143 3 238.5 11t154.5 18t135 26l11 -39l-70 -16q-60 -13 -77.5 -43.5t-24.5 -95.5q-10 -100 -14.5 -197.5t-5.5 -185.5t-1 -222
q0 -372 33 -411q15 -15 53 -25.5t146 -19.5l-2 -41q-140 8 -199 8q-223 0 -379 -10z" />
    <glyph glyph-name="two" unicode="2" horiz-adv-x="1004" 
d="M651 0h-475q-61 0 -139 -10q-8 16 -12 22l145 150q510 515 510 762q0 114 -72.5 179.5t-179.5 65.5q-156 0 -260 -112l-37 30q50 55 95.5 94.5t117 71t158.5 31.5q88 0 162 -37.5t116.5 -108t42.5 -161.5q0 -93 -38.5 -176.5t-112.5 -173t-195 -215.5l-166 -176
q-3 -5 -17 -19.5t-28 -30.5l-55 -59l315 -2q127 0 172.5 3.5t85 20.5t71.5 55t73 113l37 -20l-113 -207q-9 -16 -23 -42.5t-26.5 -51.5t-24.5 -47l-30 2q-11 30 -32.5 39.5t-64.5 9.5z" />
    <glyph glyph-name="three" unicode="3" horiz-adv-x="1004" 
d="M205 1096l-29 34q175 150 334 150q76 0 138.5 -28.5t97 -80.5t34.5 -122q0 -148 -159 -295q110 -70 180.5 -148.5t70.5 -206.5q0 -96 -54.5 -192.5t-156.5 -158.5t-237 -62q-93 0 -187 41t-161 133l98 166l39 -23q-25 -39 -25 -57q0 -30 48 -80t119.5 -87.5t140.5 -37.5
q67 0 128.5 37t97.5 100t36 137q0 80 -35.5 141t-85 101.5t-137.5 97.5l-64 -47l-26 37q112 88 176.5 164t64.5 170q0 88 -63.5 149.5t-155.5 61.5q-105 0 -227 -94z" />
    <glyph glyph-name="four" unicode="4" horiz-adv-x="1004" 
d="M391 -12v47q71 0 106.5 8.5t52 35t22 80t8.5 165.5l2 69h-226q-38 0 -107 -3.5t-125.5 -6t-92.5 -4.5q-3 8 -11 18q116 145 199.5 250.5t162.5 210.5t153.5 214.5t140.5 223.5q21 4 49 15q-3 -51 -5.5 -235.5t-2.5 -280.5l-2 -316l110 2q36 0 63.5 10.5t61.5 47.5l29 -13
l-68 -143q-64 6 -196 6q0 -135 2.5 -192t13 -91t32.5 -48.5t71 -24.5v-35q-37 2 -129 2q-191 0 -314 -12zM586 1059q-43 -68 -94 -135q-101 -136 -120.5 -161.5t-49.5 -66.5l-170 -217q214 -2 432 0l4 176q2 95 -2 404z" />
    <glyph glyph-name="five" unicode="5" horiz-adv-x="1004" 
d="M147 326l31 -9q-2 -8 -2 -32q0 -71 57.5 -125t139 -81.5t143.5 -27.5q80 0 134 53.5t81 125.5t27 124q0 80 -42 153t-119.5 132.5t-177.5 94.5t-210 38q11 67 51 172l119 318h350q57 0 82.5 6.5t52.5 38.5h43l-104 -170q-12 0 -75 2t-73 2l-84 2q-94 2 -135 -9.5
t-69.5 -58t-67.5 -168.5q226 -49 357.5 -137t179 -181.5t47.5 -174.5q0 -106 -57 -207t-161 -163t-237 -62q-118 0 -194.5 40t-143.5 105q30 69 57 199z" />
    <glyph glyph-name="six" unicode="6" horiz-adv-x="1004" 
d="M793 1317l14 -37q-158 -62 -265.5 -154t-169.5 -195t-88 -208t-26 -199q0 -159 49 -272t122.5 -168t141.5 -55q61 0 113.5 34t83.5 100.5t31 155.5q0 100 -37.5 186t-101 138.5t-134.5 52.5q-75 0 -180 -80l2 46q107 73 149 92.5t107 19.5q83 0 157 -50.5t118.5 -135.5
t44.5 -178q0 -104 -50.5 -203t-141 -160t-200.5 -61q-80 0 -155 35t-134 102t-93.5 161t-34.5 203q0 115 31.5 233.5t109 233t211.5 210t326 153.5z" />
    <glyph glyph-name="seven" unicode="7" horiz-adv-x="1004" 
d="M119 1024l-41 2q79 173 98 227q18 49 21.5 55.5t11.5 6.5q10 0 14 -12q13 -24 29 -29.5t57 -5.5q17 0 98 2t93 2q54 0 105.5 -0.5t111.5 -1.5q155 0 235 16l13 -22q-88 -142 -168 -295.5t-153.5 -316.5t-135 -315t-139.5 -360q-18 5 -31 5q-8 0 -33.5 -8.5t-28.5 -10.5
t-14 -2q-20 0 -20 19q0 11 38.5 84t41.5 81q36 68 98.5 192.5t114.5 233.5t73 154l152 324q2 5 13 28t26 58q-31 4 -94 7.5t-127 5t-113 1.5q-104 0 -167 -7t-128 -24z" />
    <glyph glyph-name="eight" unicode="8" horiz-adv-x="1004" 
d="M418 666q-138 77 -196 155t-58 172q0 78 39.5 146.5t115.5 109.5t177 41q102 0 178.5 -39.5t118 -103t41.5 -131.5q0 -76 -40.5 -135t-89 -94t-96.5 -60q89 -48 150.5 -93t108 -119.5t46.5 -178.5q0 -92 -52 -172.5t-146.5 -129t-218.5 -48.5q-110 0 -203.5 42.5
t-147 116t-53.5 156.5q0 220 326 365zM569 748q138 110 138 235q0 62 -27 121.5t-81 100t-132 40.5q-61 0 -112.5 -25t-81 -68t-29.5 -95q0 -86 61.5 -142t167.5 -116q74 -38 96 -51zM461 643q-92 -50 -160 -115.5t-68 -173.5q0 -85 50 -158t124.5 -117t139.5 -44
q67 0 120.5 31.5t85 88t31.5 128.5q0 220 -297 346q-22 11 -26 14z" />
    <glyph glyph-name="nine" unicode="9" horiz-adv-x="1004" 
d="M211 -43l-16 37q204 80 328.5 212.5t173 273t48.5 270.5q0 125 -30.5 220.5t-77.5 154.5t-101.5 89.5t-103.5 30.5q-62 0 -115 -35t-83.5 -100.5t-30.5 -153.5q0 -99 37.5 -186.5t101.5 -139.5t133 -52q47 0 97 26.5t83 52.5v-45q-70 -46 -110 -70t-72 -33t-74 -9
q-83 0 -157 50.5t-118 134t-44 179.5q0 104 50.5 203t140.5 160t198 61q81 0 158 -35.5t135 -100.5t92.5 -159.5t34.5 -206.5q0 -79 -18 -173t-69 -201t-143 -197q-54 -55 -121 -102t-122 -74t-113 -48.5t-92 -33.5z" />
    <glyph glyph-name="colon" unicode=":" horiz-adv-x="406" 
d="M76 672q0 13 26 30q43 24 76 82q10 17 27 17t26 -16t9 -23q38 -50 65 -66q19 -9 22 -13t3 -15q0 -16 -17 -25q-44 -20 -80 -78q-13 -22 -28 -22q-17 0 -31 20q-18 32 -31.5 48t-44.5 32q-12 7 -17 12t-5 17zM78 90q0 14 26 31q44 23 76 82q11 16 27 16q17 0 26 -16t9 -23
q38 -51 65 -65q18 -8 21.5 -13t3.5 -16q0 -15 -17 -25q-44 -20 -79 -77q-14 -23 -29 -23q-17 0 -31 21q-18 33 -31.5 48t-44.5 31q-14 10 -18 14t-4 15z" />
    <glyph glyph-name="semicolon" unicode=";" horiz-adv-x="426" 
d="M213 207h25q17 -40 20 -45q49 -89 49 -152q0 -93 -54.5 -159t-135.5 -117l-25 33q47 33 82 73.5t35 93.5q0 50 -28 67t-72 24q-29 8 -29 26q0 9 14 23q37 23 69.5 54.5t49.5 78.5zM115 668q0 13 26 30q43 24 76 82q11 17 27 17q17 0 26 -16t9 -23q38 -50 65 -66
q19 -9 22 -13t3 -15q0 -16 -17 -25q-22 -10 -39 -25t-41 -53q-13 -22 -28 -22q-17 0 -31 20q-18 33 -34 49.5t-42 30.5q-12 7 -17 12t-5 17z" />
    <glyph glyph-name="less" unicode="&#x3c;" 
d="M1255 276v-102l-1142 485v84l1142 484v-103l-1019 -422z" />
    <glyph glyph-name="equal" unicode="=" 
d="M111 905v94h1146v-94h-1146zM111 410v94h1146v-94h-1146z" />
    <glyph glyph-name="greater" unicode="&#x3e;" 
d="M111 1124v103l1142 -486v-84l-1142 -483v102l1019 422z" />
    <glyph glyph-name="question" unicode="?" horiz-adv-x="575" 
d="M104 1202l29 2q16 -61 35.5 -75t71.5 -21q95 -12 182 -88q86 -76 86 -223q0 -103 -41 -190.5t-123 -135.5q-44 -26 -55.5 -42.5t-18.5 -80.5q-2 -26 -4.5 -31.5t-15.5 -5.5q-21 0 -21 27l11 176q1 31 15.5 39.5t78.5 21.5q56 11 81 34t30.5 55t5.5 96q0 66 -25 110.5
t-88 73t-166 39.5q-42 5 -64 12.5t-22 32.5q16 74 18 90q1 6 1 35q0 28 -1 49zM113 94q0 14 26 31q44 23 76 82q11 16 27 16q17 0 25.5 -15.5t8.5 -23.5q39 -51 66 -65q18 -8 21.5 -13t3.5 -16q0 -15 -17 -24q-22 -10 -39 -25t-41 -53q-12 -23 -28 -23q-17 0 -31 21
q-18 33 -34 49.5t-42 30.5q-12 7 -17 12t-5 16z" />
    <glyph glyph-name="at" unicode="@" horiz-adv-x="2005" 
d="M1335 999l168 23l-125 -426q-1 -5 -8.5 -32.5t-13.5 -51.5q-45 -161 -60.5 -222.5t-15.5 -99.5q0 -24 19.5 -51.5t60.5 -27.5q76 0 155.5 53t148 151.5t108.5 224t40 265.5q0 141 -49.5 262t-140.5 209t-219 137t-283 49q-204 0 -375.5 -85t-291.5 -231t-184 -329.5
t-64 -370.5q0 -190 62 -347t176.5 -272t266.5 -175t330 -60q115 0 235 29.5t236.5 99t216.5 185.5t170 278h62q-51 -159 -147.5 -282.5t-224 -207t-269 -124.5t-285.5 -41q-192 0 -361.5 68t-299 198t-199.5 304t-70 376q0 222 79.5 414.5t219 332.5t323.5 218t388 78
q189 0 334.5 -60.5t239.5 -163.5t141 -234t47 -274q0 -128 -38.5 -260t-113.5 -244t-187 -180.5t-251 -68.5q-81 0 -121.5 37t-40.5 110q0 50 19 152l-4 4q-71 -88 -128 -147t-133.5 -107.5t-154.5 -48.5q-62 0 -107 39t-66.5 97.5t-21.5 111.5q0 160 95.5 336t235.5 293.5
t257 117.5q76 0 121.5 -36t60.5 -109h5zM1128 979q-96 0 -195.5 -122.5t-167 -286.5t-67.5 -257q0 -57 34.5 -104t88.5 -47q88 0 193 98.5t176.5 254t71.5 310.5q0 65 -35 109.5t-99 44.5z" />
    <glyph glyph-name="A" unicode="A" horiz-adv-x="1280" 
d="M864 -4v33q46 8 73.5 21t27.5 44q0 29 -18 84t-27 76l-74 201q-58 8 -189 8h-79q-119 4 -209 -12l-74 -185q-49 -116 -49 -145q0 -35 31.5 -58.5t128.5 -37.5v-33q-117 14 -199 14q-84 0 -182 -8v29q60 15 92 47q24 21 63.5 99.5t80 171t58.5 144.5l160 383
q30 69 61.5 144.5t59.5 151.5t41 122q0 13 6 19l33 2q31 -111 68 -213l210 -563q81 -211 122.5 -311.5t72.5 -143.5q26 -37 107 -45v-35q-82 8 -158 8q-60 0 -111.5 -3t-81.5 -5.5t-45 -3.5zM547 897l-113 -291q-23 -62 -31 -78q76 -12 175 -12l92 2q83 0 149 4
q-35 102 -45 121l-72 184q-12 30 -45.5 109t-48.5 108q-19 -42 -32.5 -76.5t-28.5 -70.5z" />
    <glyph glyph-name="B" unicode="B" horiz-adv-x="1044" 
d="M612 707q142 -26 228.5 -85t120.5 -130.5t34 -151.5q0 -220 -162 -283t-331 -63q-16 0 -58 1.5t-84.5 2.5t-65 1.5t-50.5 0.5q-60 0 -195 -8v37q40 4 64 10.5t42 23.5t23 46q10 43 15.5 179t7.5 276.5t2 217.5q0 83 -2 161t-10.5 153t-22.5 100q-14 28 -42 40t-75 19v39
q106 -8 187 -8q19 0 139 8q128 9 135 9q97 0 177 -36t128.5 -107.5t48.5 -166.5q0 -101 -62 -174.5t-192 -111.5zM330 838v-123q22 2 51 2q90 2 158 16t121 69t53 169q0 90 -37.5 153t-100.5 96t-135 33q-69 0 -84 -16q-13 -11 -19.5 -152.5t-6.5 -246.5zM330 668v-392
q0 -102 4 -144t19 -62.5t45 -24.5t106 -4q81 0 156.5 25.5t127.5 89.5t52 172q0 60 -23 123t-69 112.5t-121.5 81t-175.5 31.5q-24 0 -57.5 -2t-63.5 -6z" />
    <glyph glyph-name="C" unicode="C" horiz-adv-x="1280" 
d="M1204 201q-5 -13 -43 -148q-108 -32 -196 -49.5t-191 -17.5q-124 0 -248 44t-223 130.5t-157 211t-58 283.5q0 218 107.5 368t274 221t343.5 71q139 0 268 -49q60 -19 90 -19q14 3 20.5 4t16.5 2q6 0 13 -8l-15 -57q-21 -75 -37 -191q-18 3 -24 12.5t-6 30.5
q-2 63 -17 86q-27 44 -135 90t-217 46q-144 0 -260.5 -71.5t-184 -209.5t-67.5 -324q0 -171 59.5 -294.5t149 -195.5t182 -104t160.5 -32q108 0 179 35.5t111.5 85t78.5 118.5q15 29 26 29q19 0 19 -18q0 -13 -19 -80z" />
    <glyph glyph-name="D" unicode="D" horiz-adv-x="1473" 
d="M51 1239l-2 37q268 0 451 22q68 9 141 9q149 0 285 -44.5t242 -128.5t166.5 -204.5t60.5 -270.5q0 -182 -93.5 -332t-267 -236.5t-395.5 -86.5q-13 0 -79 2t-77 2q-39 0 -69.5 -0.5t-89 -1.5t-112 -2.5t-73.5 -1.5l-98 2v37q107 0 129 47q25 55 25 498q0 294 -7 438.5
t-28 179.5q-26 38 -109 35zM1221 657q0 190 -90 326.5t-230 206.5t-287 70q-144 0 -260 -52q-10 -56 -15 -334t-5 -479q0 -8 1.5 -75t3 -135.5t1.5 -78.5q101 -32 155 -44.5t136 -12.5q207 0 339.5 89.5t191.5 228.5t59 290z" />
    <glyph glyph-name="E" unicode="E" horiz-adv-x="1153" 
d="M1075 293h31q-16 -104 -35 -172.5t-49 -130.5q-33 3 -90 4.5t-160 1.5q-62 0 -133 2t-61 2q-65 0 -151.5 -1.5t-208.5 -5.5t-179 -7l2 34q31 7 63 15.5t43.5 18.5t16.5 24.5t10 52.5q6 38 11.5 137.5t9 223.5t2.5 155l-7 318q-3 148 -11.5 200t-32.5 69t-91 30q0 16 2 26
h641q108 0 326 8q-5 -86 -18 -172t-33 -86q-25 0 -25 15q0 6 4 38t4 37q0 73 -87.5 93t-209.5 20q-147 0 -307 -20q-18 -166 -18 -279q0 -74 1 -170t1 -90q24 -2 147 -2q212 0 291 8q45 5 60.5 12t29.5 35.5t31 87.5l29 -2q0 -104 -0.5 -186t-1.5 -188h-35q-3 92 -27.5 128
t-94.5 46t-249 10q-115 0 -180 -10l-4 -142q-7 -260 18 -401q18 -5 43 -11t47.5 -9.5t64.5 -7t105 -3.5q157 0 246.5 23t137 74t81.5 147z" />
    <glyph glyph-name="F" unicode="F" horiz-adv-x="1044" 
d="M25 1260v30l129 2q18 0 182 -4q82 -2 133 -4t59 -2q280 0 455 14q-5 -56 -6 -130.5t0 -121.5h-41q-5 79 -25 116t-96 57t-246 20q-172 0 -227 -14q-8 -109 -8 -367v-158q120 -10 227 -10q139 0 198 10t72 34t13 83q22 0 39 4q4 -66 4 -121q0 -104 -4 -209h-41
q0 101 -17 111q-22 16 -108.5 29.5t-202.5 13.5q-119 0 -178 -6q-4 -188 -4 -338q0 -96 4.5 -136.5t24 -65.5t57.5 -35.5t129 -22.5v-39q-129 6 -217 6h-99q-80 0 -184 -8l2 33q65 11 88.5 31t30.5 57q22 119 22 547q0 57 -0.5 112.5t-2 149.5t-7.5 168t-16 100
q-12 34 -44 45.5t-95 18.5z" />
    <glyph glyph-name="G" unicode="G" horiz-adv-x="1386" 
d="M1360 635v-37q-39 -13 -49.5 -19.5t-18.5 -27.5q-5 -13 -6.5 -35t-2.5 -66t-1 -165q0 -89 4 -127t12.5 -52.5t28.5 -31.5l-10 -23q-16 -1 -139 -26q-82 -15 -157 -24.5t-120 -12t-106 -2.5q-185 0 -322 57t-226 154.5t-130 212t-41 231.5q0 153 62.5 279.5t171 213
t246 130t282.5 43.5q55 0 105.5 -7t88.5 -15.5t49 -12.5q43 -19 56 -19q53 45 61 45q14 0 14 -38q0 -29 13.5 -124t13.5 -130q0 -15 -12 -15q-9 0 -11.5 3t-9.5 20q-37 86 -138.5 161.5t-276.5 75.5q-166 0 -294 -83.5t-196 -220t-68 -281.5q0 -103 38.5 -211.5t117 -205
t191 -153.5t247.5 -57q114 0 193.5 32t103.5 62q11 14 14 44t3 155q0 122 -9.5 170t-45.5 64t-128 16q-39 0 -63 -4l4 43q138 1 256.5 3.5t204.5 10.5z" />
    <glyph glyph-name="H" unicode="H" horiz-adv-x="1579" 
d="M45 -12l-14 37q106 12 129 43q17 24 27 221.5t10 341.5l2 330q0 135 -9.5 194t-39.5 78.5t-95 21.5l2 33q58 10 101 10q14 0 104 -4q68 -6 107 -6l145 2q0 -18 2 -35l-53 -8q-50 -7 -68 -17t-26.5 -40.5t-18.5 -124.5q-10 -90 -10 -213q0 -102 2 -160h473q271 0 335 1
t93 7l2 211q0 172 -3.5 215.5t-14.5 67.5q-11 32 -36 43.5t-106 28.5l5 37q46 -6 92 -11q59 -6 131 -6q18 0 104 4q90 4 101 4l4 -28q-14 -4 -19 -6q-41 -10 -62 -26t-30.5 -50.5t-12.5 -78.5t-7 -214l-9 -461q-5 -190 4.5 -273t38 -108t99.5 -33l-2 -30q-39 9 -97 12
q-32 2 -84 2q-18 0 -120 -4q-81 -6 -125 -6l-4 35q68 8 96 27t37 61t12 145l6 227l-2 131l-111 5l-571 4l-217 -2q-6 -117 -6 -349q0 -145 12 -180q5 -19 17.5 -32t41.5 -23.5t89 -22.5l-2 -32q-21 1 -73.5 5t-101.5 6.5t-88 2.5q-63 0 -186 -10z" />
    <glyph glyph-name="I" unicode="I" horiz-adv-x="641" 
d="M41 1253v43q113 -6 141 -8q102 -4 137 -4q12 0 104 4t173 8v-47q-88 0 -120 -9.5t-48 -37.5q-33 -63 -33 -481q0 -288 0.5 -364.5t3.5 -163.5q2 -70 11 -99t49 -43.5t129 -15.5l-4 -39q-14 0 -55.5 1.5t-86 2.5t-68.5 1.5t-55 0.5q-44 0 -73.5 -0.5t-78.5 -1.5
t-88.5 -2.5t-47.5 -1.5l-2 37q108 6 146 25t52 61q20 54 25.5 204.5t5.5 317.5q0 151 -10 434q-3 78 -15.5 111.5t-56 49.5t-135.5 17z" />
    <glyph glyph-name="J" unicode="J" horiz-adv-x="641" 
d="M35 1253l-6 39q22 0 149 -6t150 -6q68 0 266 12l2 -39q-92 -6 -129 -23t-48 -66t-13 -171q-3 -56 -3.5 -138t-1.5 -155v-153q0 -39 2.5 -246.5t2.5 -312.5q0 -74 -5 -133q-87 -124 -182 -222t-190 -98q-22 0 -44 15t-22 28q0 18 50.5 48t70.5 30q6 0 57 -18
q125 0 125 540v397q0 250 -5.5 391.5t-18 189t-39.5 67.5q-28 21 -78.5 27t-89.5 3z" />
    <glyph glyph-name="K" unicode="K" horiz-adv-x="1280" 
d="M57 1257l-2 35q164 -8 238 -8q73 0 119.5 4.5t87.5 9.5v-32q-117 -14 -140 -56q-9 -19 -16 -107.5t-10.5 -192t-3.5 -152.5v-119q35 31 123 119l245 241q105 105 133 142q23 26 23 59q0 46 -98 51l-2 37l166 -2q101 -3 213 10l2 -39q-83 -9 -214 -119.5t-243 -222.5
l-139 -135q-59 -56 -97 -96l371 -309q243 -200 320 -260t137 -95l2 -32q-10 1 -24.5 3.5t-37.5 4.5q-48 4 -94 4q-84 0 -219 -12l-2 28q8 3 16 5t27 6q41 7 41 22q0 31 -223 207l-185 150q-33 26 -54.5 43.5t-65.5 50.5t-93 69q-13 10 -26 19q-2 -90 2.5 -280.5t13.5 -219.5
q15 -32 71.5 -53t82.5 -21v-30q-36 6 -131 10q-52 2 -158 2q-88 0 -166 -4v35q60 5 87 19.5t36 55.5q9 36 16 145.5t10 241.5t3 156q0 240 -6 359q0 87 -4.5 134t-17 70.5t-37.5 32.5t-77 16z" />
    <glyph glyph-name="L" unicode="L" horiz-adv-x="1153" 
d="M96 1251v35q126 -1 165 -2t65 -2q168 0 221 4l-2 -39q-69 -6 -103 -16.5t-49 -44.5q-9 -22 -13 -110t-7 -226q-4 -155 -6 -281t-2 -250q0 -113 6 -167t20 -68q17 -13 56.5 -19t168.5 -6q142 0 237.5 23t143.5 49q64 39 88 133l33 -4q-6 -41 -27 -123t-49 -149
q-86 10 -137 10q-31 1 -57.5 1.5t-61.5 0.5h-702l-2 31q59 12 86 26t40.5 48.5t17 103.5t3.5 199l2 440q2 149 0 226t-14 114.5t-38 49t-83 13.5z" />
    <glyph glyph-name="M" unicode="M" horiz-adv-x="1792" 
d="M43 1260l4 38q19 0 37 -1.5t63 -2.5q52 -4 97 -7t92 -3q19 1 36 1.5t50 0.5q33 -89 59.5 -150t105.5 -213.5t152.5 -290t184.5 -345.5q45 75 147 272q19 36 139.5 262t169.5 319t74 148q78 -2 170 -2q76 0 121 2l-2 -37q-77 -9 -109 -20.5t-49 -40.5t-21.5 -84t-2.5 -193
l6 -278q1 -24 1.5 -47.5t2 -58t3.5 -89t5 -135.5q5 -94 11.5 -141t25.5 -73.5t49 -35t92 -10.5v-37l-172 2l-133 -2q-110 0 -190 -10l-2 37q84 20 120 43.5t52 83t16 178.5q0 76 -2 123l-8 270q-6 174 -27 320q-30 -58 -92.5 -174t-115 -215t-101.5 -193t-80 -160
q-64 -140 -84.5 -189t-40.5 -112l-31 -2q-25 79 -60 173t-99 216q-129 246 -345 662q-17 -170 -33 -397t-16 -480q0 -78 32.5 -109t152.5 -44l-2 -33q-66 8 -142 8l-121 -2q-21 0 -38.5 -0.5t-50.5 -1.5t-65 -2.5t-46 -1.5l2 29q96 17 136 49.5t52 93.5t23 219l30 522
q5 72 5 97q0 102 -26.5 155t-76 72.5t-135.5 26.5z" />
    <glyph glyph-name="N" unicode="N" horiz-adv-x="1579" 
d="M33 1255v41q90 -6 115 -7.5t59 -0.5l86 2q60 -76 141 -161t181.5 -182.5t113.5 -110.5l590 -560q8 125 8 379v193q0 154 -7.5 232t-28.5 115t-55 49.5t-114 25.5l11 28q14 2 49 2q31 0 62 -1t73 -5q25 -2 52 -2h44l127 2l2 -34q-60 -9 -86 -28t-37 -63
q-18 -82 -25.5 -321t-7.5 -455q0 -85 1.5 -163t3.5 -140t6 -115l-41 2q-69 149 -416 472l-375 350q-19 14 -92.5 83t-185.5 173l-13 -613q-5 -189 8 -264.5t57 -100t167 -48.5q0 -21 -4 -37q-16 0 -96 4q-82 4 -99 4q-16 0 -110 -4q-16 -1 -43 -3t-70 -5q-14 0 -20.5 5.5
t-6.5 18.5q0 15 5 18t22 5q44 5 63.5 16t31.5 42t17.5 98.5t6.5 173.5l6 477q2 157 -5.5 233t-44.5 123t-126 57z" />
    <glyph glyph-name="O" unicode="O" horiz-adv-x="1516" 
d="M84 645q0 182 96.5 336t256.5 244t339 90q122 0 241 -48t213 -134.5t150 -211.5t56 -272q0 -179 -89 -334.5t-247.5 -247.5t-358.5 -92q-153 0 -276 60t-209.5 162t-129 218.5t-42.5 229.5zM233 721q0 -175 82 -331t220 -249.5t292 -93.5q114 0 218.5 56.5t171.5 174.5
t67 291q0 138 -44.5 262t-124 217.5t-183.5 145t-219 51.5q-126 0 -236 -62.5t-177 -182.5t-67 -279z" />
    <glyph glyph-name="P" unicode="P" horiz-adv-x="1087" 
d="M55 -14v30q76 22 99.5 33t27.5 35q15 57 15 463q0 63 -0.5 137t-1.5 114.5t-5 125.5q-2 58 -7 144.5t-9.5 110t-13.5 38.5q-14 21 -42 29t-81 14q-2 21 0 40q80 -6 188 -6q31 0 109 4l63 5q23 2 64 2q141 0 247 -39t177.5 -103.5t106 -138t34.5 -143.5q0 -108 -66 -203
t-195 -154t-304 -59q-67 0 -129 10q1 -78 2 -182.5t2 -126.5q3 -60 15 -86t49.5 -37t125.5 -16l-2 -45q-38 7 -102 10q-78 4 -107 4q-110 0 -172 -10l-51 -6q-20 0 -37 6zM342 1235q0 -9 -2.5 -104.5t-4 -157t-3.5 -134t-2 -83.5q0 -97 2 -213q87 -23 162 -23
q83 0 167.5 32.5t142.5 111t58 206.5q0 99 -42.5 186.5t-130.5 142t-210 54.5q-63 0 -137 -18z" />
    <glyph glyph-name="Q" unicode="Q" horiz-adv-x="1516" 
d="M1628 -203l12 -24q-60 -29 -131 -39t-118 -10q-318 0 -615 251q-101 2 -158 11.5t-137 42.5q-131 57 -219.5 159t-133 223.5t-44.5 237.5q0 173 94 328t253.5 246.5t344.5 91.5q120 0 239.5 -47.5t213.5 -134t150.5 -211t56.5 -273.5q0 -140 -55.5 -266.5t-157.5 -224.5
q-49 -48 -98 -76t-132 -64q331 -231 551 -231q32 0 84 10zM233 721q0 -133 47 -254t131 -217t192 -149.5t224 -53.5q113 0 217.5 57t172 174.5t67.5 290.5q0 141 -45 264.5t-124 215.5t-183 144t-219 52q-126 0 -236 -62.5t-177 -182.5t-67 -279z" />
    <glyph glyph-name="R" unicode="R" 
d="M647 446l-115 164q-132 0 -219 13l-2 -240q0 -76 4.5 -170t20.5 -133q8 -24 27.5 -34t87.5 -28q22 -5 22 -16q0 -22 -14 -22q-16 0 -84 10q-86 8 -105 8q-97 0 -200 -14q-7 0 -17 -2q-20 0 -20 18q0 10 7.5 15t33.5 12q45 12 65 36.5t29 96t10 229.5v442q2 162 -1.5 238
t-16.5 111.5t-40 47.5t-85 19l4 33q53 -2 135 -2q24 0 174.5 12.5t190.5 12.5q105 0 189 -29t140.5 -77t85.5 -109.5t29 -126.5q0 -67 -30 -130t-91 -114.5t-157 -87.5l45 -68q94 -142 156 -229.5t133.5 -168.5t146 -131.5t145.5 -56.5q19 -3 19 -20q0 -9 -9 -13.5t-43 -4.5
q-97 0 -187 42.5t-171 114.5t-144 151t-149 201zM319 680q67 -16 162 -16q48 0 101.5 7t110 31t97.5 81t41 153q0 68 -35.5 142.5t-109.5 128t-180 53.5q-44 0 -99.5 -11.5t-64.5 -36.5q-23 -49 -23 -532z" />
    <glyph glyph-name="S" unicode="S" horiz-adv-x="961" 
d="M127 -4l-41 2q2 139 -55 334q24 7 32 8q24 -75 37.5 -108.5t35 -59t59.5 -45.5q65 -34 150 -61t183 -27q85 0 170.5 42t85.5 185q0 72 -25 124t-65.5 84t-94 57t-138.5 57q-118 43 -194.5 88t-121.5 111t-45 161q0 151 111 251.5t317 100.5q105 0 207 -22q41 -8 51 -8
q30 0 60 20l8 4q8 0 20 -4q-3 -23 -5.5 -45.5t-5 -49.5t-3.5 -42t-2 -20q13 -121 12 -132l-30 -2q-8 102 -67 160.5t-133 79.5t-142 21q-166 0 -219.5 -86.5t-53.5 -163.5q0 -81 40 -134.5t99.5 -84t167.5 -72.5q122 -48 196 -88.5t132 -117t58 -189.5q0 -96 -50 -173
t-150 -122t-245 -45q-141 0 -293 41q-27 6 -33 6q-26 0 -20 -35z" />
    <glyph glyph-name="T" unicode="T" 
d="M59 1075l-34 8q47 125 84 238q24 -22 36 -28.5t43 -10.5q64 -8 291 -8h506q19 0 122 2t118 2q42 0 56 5.5t30 23.5q9 -14 26 -25q-35 -95 -55 -205l-43 -6q5 33 8 90q-28 24 -90 38.5t-199 14.5q-100 0 -132 -1.5t-40 -8t-10 -28.5l-6 -134q0 -32 -6 -176
q-1 -36 -2 -196.5t-2 -278.5q0 -150 3 -210.5t17 -92.5t42.5 -42t97.5 -19q45 -4 45 -13q0 -20 -2 -24q-15 -2 -39 -2q-61 4 -107 6q-67 6 -108 6q-97 0 -213 -18q-64 -11 -70 -11q-15 0 -21.5 7t-13.5 26q13 4 62 16q70 16 100.5 29t38.5 32t8 60q0 49 8 113q0 -6 2 119
t3 177.5t1 125.5q0 214 -1.5 306t-6.5 142.5t-16 79.5q-86 8 -189 8q-108 0 -167.5 -7t-92 -23t-46 -36t-36.5 -71z" />
    <glyph glyph-name="U" unicode="U" horiz-adv-x="1473" 
d="M43 1245l4 37q47 -2 143 -2q170 0 334 8l11 -33q-93 -11 -125.5 -27t-47.5 -44q-30 -56 -30 -469q0 -142 4 -250t16 -168q33 -151 161 -200.5t239 -49.5q63 0 151 18t167 65t106 128q55 160 55 629q0 140 -8.5 210.5t-27.5 102t-48 38.5t-92 7l-4 35q45 6 100 6
q215 0 289 -2v-41q-69 -3 -94.5 -15t-31 -43t-7.5 -132q-3 -189 -9 -335.5t-15 -241t-25.5 -168.5t-40.5 -120q-46 -85 -143 -132t-196 -61.5t-180 -14.5q-135 0 -249 40.5t-186.5 134.5t-72.5 242q0 36 2.5 197t2.5 240q0 277 -27 368q-7 23 -23.5 28.5t-101.5 14.5z" />
    <glyph glyph-name="V" unicode="V" horiz-adv-x="1473" 
d="M20 1264l5 36l81 -2l164 -6q23 1 42 1.5t57 0.5l100 -2l2 -32q-88 -6 -108.5 -12t-20.5 -25q0 -27 41.5 -131t102 -239.5t87.5 -195.5l140 -301l28 -57q28 -58 41 -86q34 60 81 155.5t88.5 184.5t45.5 98l131 287q29 63 57.5 137.5t28.5 106.5q0 66 -110 75l6 41
q115 -10 236 -10q32 1 57 1.5t63 0.5v-28q-66 -22 -99 -47.5t-66 -81.5t-113 -218l-225 -448q-64 -124 -126.5 -272t-72.5 -220l-31 -4q-23 66 -51 125l-68 150q-31 80 -84 190l-168 355q-186 387 -223 428q-23 26 -49 34.5t-70 10.5z" />
    <glyph glyph-name="W" unicode="W" horiz-adv-x="2005" 
d="M31 1245l-2 41l94 -4q134 -4 170 -4q115 0 174 4h72l4 -39q-59 -4 -111.5 -24t-52.5 -56q0 -38 76.5 -256.5t164 -446t93.5 -237.5l41 107q6 12 32.5 76t40.5 98l174 389q-76 176 -98.5 226.5t-34.5 64.5q-37 51 -112 55l-4 41q68 -4 139 -4q182 0 328 10l2 -35
q-71 -8 -105 -22t-41.5 -28.5t-7.5 -35.5q0 -34 63.5 -224t151 -424t115.5 -298q74 183 146.5 383t114.5 339t42 181q0 81 -56 102.5t-137 24.5l-8 33h107q134 -3 299 2l80 2l-3 -35q-62 -6 -102.5 -33t-75.5 -91t-80 -187l-198 -551q-50 -135 -60 -158q-20 -50 -33 -88
t-30 -88t-39 -116l-31 2q-28 84 -56 172t-49 151.5t-32 91.5l-168 461q-14 -30 -36 -78t-34 -71l-106 -240q-40 -89 -67.5 -164t-58 -166t-52.5 -159h-27l-117 337q-25 77 -63.5 190.5t-90 259.5t-95 258t-68.5 157q-36 68 -79.5 86t-102.5 18z" />
    <glyph glyph-name="X" unicode="X" horiz-adv-x="1386" 
d="M37 1266l2 34q101 -12 254 -12q127 0 199 6l6 -39q-105 0 -105 -36q0 -19 26.5 -61.5t61 -89t68.5 -91.5l180 -227q160 212 217.5 299.5t57.5 136.5q0 44 -34.5 59t-99.5 19l4 34q15 0 109 -4t113 -4h207v-33q-51 -5 -85 -18.5t-66 -41t-74.5 -78.5t-114.5 -142l-78 -103
l-68 -92q-10 -13 -29.5 -40t-25.5 -33l336 -447q81 -109 119 -152.5t65.5 -57t87.5 -23.5l4 -37q-36 4 -90 4q-78 4 -135 4q-95 0 -246 -8l-6 37q62 11 93.5 23.5t31.5 35.5q0 25 -20 65.5t-41 69.5q-134 185 -177 240l-108 137q-59 -66 -262 -342q-40 -56 -59 -90.5
t-19 -58.5q0 -40 39 -57t100 -25v-35q-66 4 -160 4l-65 2q-5 0 -62.5 -1.5l-115 -3t-62.5 -1.5l2 31q80 12 141 51.5t123.5 110t176.5 218.5l118 152q5 4 24.5 29.5t30.5 41.5t15 21l-94 117q-143 185 -222 281.5t-127.5 142.5t-80 59.5t-80.5 18.5z" />
    <glyph glyph-name="Y" unicode="Y" 
d="M18 1249l-6 35h99q73 -3 107.5 -4.5t39.5 -1.5q28 0 75 2t113 4l48 -2l-5 -39q-70 -6 -95 -12t-25 -27q0 -22 74.5 -129t172 -235t138.5 -176q30 41 90 129l76 114q40 58 89.5 146.5t49.5 124.5q0 72 -135 65l4 39l84 -4q10 0 66 -2t65 -2q15 0 98 2t98 2l-2 -41
q-66 -3 -107 -22.5t-94 -83.5t-145 -203l-110 -166l-105 -164l4 -324q0 -120 3.5 -159.5t16.5 -52.5t52 -23q34 -7 106 -27l-2 -26q8 0 -75 6l-62 4q-40 4 -65 4h-43q-15 0 -121 -8q-85 -10 -123 -10v32q104 4 139 41q16 14 22 38t8.5 107t2.5 265q0 100 -2 123l-82 121
q-61 87 -116 161t-89 113q-107 135 -153 184.5t-79 64t-100 17.5z" />
    <glyph glyph-name="Z" unicode="Z" horiz-adv-x="1260" 
d="M840 0h-516q-158 0 -316 -12q1 6 1.5 11t0.5 13q130 134 262.5 285t238 283.5t235 307.5t233.5 329q-73 4 -170.5 6t-212.5 2q-220 0 -317.5 -12.5t-146 -50.5t-89.5 -126l-29 15q13 39 22.5 76.5t14 57t6.5 27.5l21 97q3 12 6 18t10 6t15 -10q19 -32 71 -37
q31 -5 65.5 -6.5t78 -2.5t145.5 -1q375 0 745 10v-18q-73 -97 -116.5 -152.5t-105.5 -133t-97.5 -121t-44.5 -54.5l-223 -283q-15 -16 -78 -100q-26 -30 -59.5 -71.5t-72 -90.5t-76.5 -97t-81 -99q95 -19 264 -19q242 0 349.5 14t201.5 52q65 26 96 58.5t56 100.5l30 -18
q-17 -41 -60 -148t-58 -141q-13 0 -19 2q-2 18 -46 25.5t-234 7.5z" />
    <glyph glyph-name="bracketleft" unicode="[" horiz-adv-x="641" 
d="M152 -553v1911h426v-58h-369v-1792h369v-61h-426z" />
    <glyph glyph-name="backslash" unicode="\" horiz-adv-x="1087" 
d="M154 1520l874 -1817h-92l-877 1817h95z" />
    <glyph glyph-name="bracketright" unicode="]" horiz-adv-x="641" 
d="M487 1358v-1911h-426v57h369v1792h-369v62h426z" />
    <glyph glyph-name="asciicircum" unicode="^" horiz-adv-x="1024" 
d="M500 1313h30l455 -764h-98l-373 625l-375 -625h-100z" />
    <glyph glyph-name="underscore" unicode="_" horiz-adv-x="1024" 
d="M-12 -154h1048v-102h-1048v102z" />
    <glyph glyph-name="grave" unicode="`" horiz-adv-x="682" 
d="M330 1245l196 -356h-47l-289 356h140z" />
    <glyph glyph-name="a" unicode="a" horiz-adv-x="768" 
d="M246 590l-123 -55q-8 32 -8 47q0 51 62.5 94.5t141 70.5t109.5 27q27 0 67 -24t64 -48q21 -20 32.5 -39.5t20.5 -61.5t9 -107q0 -19 -5 -134l-4 -75q-4 -54 -4 -86q0 -41 11 -88q10 -48 45 -48q39 0 104 29v-41l-147 -59q-44 -15 -50 -15q-23 0 -45.5 30.5t-36.5 72.5
q-185 -103 -284 -103q-61 0 -92 35.5t-31 106.5q0 68 16.5 101t53.5 52q75 38 159 56.5t176 31.5l5 123v33q0 85 -48.5 134.5t-113.5 49.5q-31 0 -62.5 -17.5t-31.5 -49.5q0 -16 10 -43zM483 117q-3 33 6 188q-132 9 -212 -32t-80 -103q0 -45 24.5 -85t67.5 -40q48 0 194 72
z" />
    <glyph glyph-name="b" unicode="b" horiz-adv-x="961" 
d="M274 967l-6 -285q94 48 156 68t123 20q86 0 165 -44.5t127 -124.5t48 -181q0 -132 -76 -229t-185.5 -146t-207.5 -49q-51 0 -137 27q-52 14 -70 14q-19 0 -34 -6.5t-34 -20.5l-16 -8l-12 8l14 56q25 140 25 669q0 174 -4 324q-2 105 -19 137.5t-78 32.5q-9 0 -17 0.5
t-10.5 3t-2.5 8.5q213 110 225 119q21 18 31 18q16 0 16 -20q-7 -104 -10 -119q-10 -219 -11 -272zM266 385v-147q2 -52 5.5 -69t19.5 -32q103 -76 211 -76q74 0 132.5 36.5t92 102t33.5 148.5q0 59 -17.5 120.5t-52.5 114.5t-89 87.5t-124 34.5q-92 0 -205 -68q0 7 -4 -99
t-2 -153z" />
    <glyph glyph-name="c" unicode="c" horiz-adv-x="768" 
d="M717 125l14 -29q-133 -110 -274 -110q-81 0 -167.5 33.5t-135.5 86.5q-31 37 -48.5 103.5t-17.5 128.5q0 125 67 227.5t164.5 159.5t182.5 57q51 0 142 -28.5t91 -53.5q0 -10 -28 -52t-45 -42q-8 0 -22.5 8t-49.5 27q-109 45 -180 45q-101 0 -152 -66t-51 -198
q0 -121 53 -204t127.5 -121t136.5 -38q52 0 96.5 18t96.5 48z" />
    <glyph glyph-name="d" unicode="d" horiz-adv-x="981" 
d="M713 952v140q-7 67 -12.5 92.5t-17 34t-36.5 8.5q-27 0 -67 -10l-2 30q184 76 264 133l24 -10q-11 -48 -19 -167t-16 -285l-4 -99l-8 -403v-97q0 -143 9.5 -214.5t27.5 -71.5q11 0 46.5 10t74.5 23v-37q-235 -82 -254 -82q-15 0 -23 40.5t-8 121.5q-108 -57 -172 -81
t-135 -24q-74 0 -145 38.5t-116.5 112.5t-45.5 171q0 133 59.5 222.5t137 135t148 65t91.5 19.5q31 0 79 -8t114 -25q6 111 6 217zM692 258l6 342q0 23 -34.5 41.5t-76 28.5t-91.5 17t-58 7q-64 0 -121.5 -33.5t-92 -91.5t-34.5 -129q0 -110 40 -190t108.5 -122t150.5 -42
q58 0 105.5 20.5t97.5 51.5q-1 7 -0.5 39t0.5 61z" />
    <glyph glyph-name="e" unicode="e" horiz-adv-x="748" 
d="M707 520l-500 -108q5 -94 18.5 -145.5t53.5 -104.5q77 -101 186 -101q45 0 96 17t113 61l18 -24q-174 -125 -309 -125q-143 0 -223 108t-80 248q0 143 61 237.5t137 137.5t115 43q45 0 93.5 -14.5t95 -55.5t77.5 -112q9 -15 17 -20t29 -5zM209 451l131 28q8 4 60.5 16
t70.5 15q52 12 66 17t14 16q0 16 -24 54.5t-68.5 70.5t-104.5 32q-75 0 -106.5 -79t-38.5 -170z" />
    <glyph glyph-name="f" unicode="f" horiz-adv-x="618" 
d="M70 692v60l133 2q1 174 30 276t84 166q44 51 110 93.5t131 65.5t108 23q58 0 115 -20.5t57 -48.5q0 -16 -22 -48t-42 -32l-80 28q-84 31 -133 31q-79 0 -127 -46t-73 -163t-29 -325h272v-64l-272 -2l-4 -285q0 -172 3 -253t17 -95q9 -7 30 -9t122 -5v-39q-59 2 -200.5 3
t-236.5 1v33q53 3 79.5 13.5t39 37t16 76t3.5 139.5l2 334q0 36 -8 41q-19 12 -125 12z" />
    <glyph glyph-name="g" unicode="g" horiz-adv-x="854" 
d="M342 131q-57 14 -115.5 42t-105.5 90.5t-47 168.5q0 96 51.5 176.5t134 126t168.5 45.5q53 0 99 -14.5t85 -44.5q72 14 152 14q53 0 72 -4q-3 -54 -27 -108q-68 28 -143 28q13 -18 26 -48.5t21 -65.5t8 -68q0 -92 -41 -156t-101.5 -102.5t-154.5 -83.5
q-176 -78 -176 -113q0 -61 147 -61q122 0 190 -4t120 -21t81 -57.5t29 -112.5q0 -97 -75.5 -171.5t-193 -115t-235.5 -40.5q-152 0 -211 66.5t-59 140.5q0 84 51.5 135t130.5 98q-106 58 -104 154q47 36 157 77zM449 184q72 38 112.5 84t40.5 150q0 59 -17 113.5t-47 96.5
t-73.5 67.5t-97.5 25.5q-82 0 -137.5 -62.5t-55.5 -158.5q0 -135 81 -203t194 -113zM279 -152q-62 -19 -112 -63.5t-50 -101.5q0 -66 77 -119t199 -53q69 0 150 20.5t138.5 65.5t57.5 110q0 45 -31 85q-32 39 -96 44q-14 2 -101.5 1t-104.5 -1q-89 0 -127 12z" />
    <glyph glyph-name="h" unicode="h" horiz-adv-x="961" 
d="M37 1217v38q22 11 29 15l194 94l33 18l33 -16q-19 -90 -27 -207.5t-12 -298.5l-6 -203q118 51 191.5 75t141.5 24q96 0 140 -58.5t54.5 -143t10.5 -222.5q0 -27 -0.5 -50t-1.5 -64.5t-2.5 -76t-1.5 -39.5q0 -43 21 -57t116 -14l-2 -31h-65q-15 0 -123.5 -1t-111.5 -1
t-44 -10q-10 0 -10 14q0 10 16 14q38 9 56.5 32t25 78t6.5 181q0 199 -32 284t-146 85q-59 0 -130 -22t-105 -40q0 -28 -4 -94l-9 -241q0 -23 -0.5 -42t-1.5 -42q0 -97 13 -125q5 -17 24 -23.5t101 -13.5v-35q-33 4 -140 4q-111 0 -239 -10l2 33q64 13 84.5 25.5t28 47.5
t10.5 131q3 157 8 269l4 280q2 43 2 191q0 135 -11.5 199.5t-56.5 64.5q-7 0 -63 -16z" />
    <glyph glyph-name="i" unicode="i" horiz-adv-x="492" 
d="M66 -4l4 31q85 8 96 30q5 9 9 71.5t6.5 149t2.5 97.5q0 142 -4.5 182t-17.5 55q-4 5 -50 10t-46 13q0 16 18 20q119 37 233 131q7 0 19 -4q-10 -41 -17 -120t-11.5 -166t-4.5 -154q0 -50 3.5 -143.5t12.5 -126.5q8 -18 20 -23t48 -8q35 -1 70 -6l12 -29zM217 1192
q0 34 23 56t55 22t54 -23t22 -55t-21.5 -55t-54.5 -23q-32 0 -55 23t-23 55z" />
    <glyph glyph-name="j" unicode="j" horiz-adv-x="469" 
d="M53 627l-14 30q168 67 283 164q10 -10 16 -14q-25 -78 -25 -238v-313l4 -344q2 -99 -6.5 -149.5t-45.5 -98t-128 -121.5q-42 -34 -53.5 -55t-17.5 -61l-5 -2l-30 28q1 47 20 83.5t55 84.5q45 60 64 111t23 119t4 225q0 151 -4 289t-15 190q-9 40 -23.5 61t-48.5 21
q-10 0 -53 -10zM193 1180q0 40 26 64t60 24q20 0 38.5 -9.5t28.5 -27.5t10 -37q0 -31 -27.5 -57.5t-62.5 -26.5q-32 0 -52.5 19.5t-20.5 50.5z" />
    <glyph glyph-name="k" unicode="k" horiz-adv-x="938" 
d="M27 -2v33q47 5 70 14.5t33 27t15 52.5q7 77 10 227t5 300.5t2 236.5q0 223 -19 293q-14 43 -47 43q-16 0 -35.5 -7t-29.5 -12l2 33q8 5 24.5 13.5t28 14t31 14.5t37.5 17q63 27 92 42.5t43 35.5h30q-11 -36 -20 -134.5t-14.5 -253t-7 -264.5t-1.5 -136l-2 -137
q20 7 89.5 53t122.5 95.5t53 80.5q0 25 -18.5 34t-55.5 13v29l92 -2q29 -2 133 -2q51 0 166 2l-4 -37q-63 -6 -118.5 -30.5t-158.5 -92.5l-172 -115q32 -33 261 -254q118 -118 169.5 -151t96.5 -41v-35q-14 2 -29.5 3.5t-27 2t-52.5 0.5h-78q-108 0 -176 -6v35q11 3 33.5 6
t35.5 6.5t13 9.5q0 10 -32 48.5t-52 58.5q-82 83 -149 147l-66 60q-7 8 -29.5 26.5t-29.5 18.5q-17 0 -17 -35v-107q0 -94 1.5 -134.5t6.5 -60t17 -24.5q24 -10 96 -20l-2 -35q-52 8 -127 8q-111 0 -239 -8z" />
    <glyph glyph-name="l" unicode="l" horiz-adv-x="492" 
d="M27 -4v31q75 13 106 45t39 98q5 34 11 156.5t11 280.5t5 284q0 264 -27 301q-17 25 -68 25q-12 0 -19 -1t-13 -2t-13 -2v31q191 80 269 135h30q-31 -118 -39 -428l-8 -481q0 -338 15 -383q9 -26 60 -39.5t91 -17.5v-37q-196 14 -264 14q-91 0 -186 -10z" />
    <glyph glyph-name="m" unicode="m" horiz-adv-x="1450" 
d="M29 -2l2 31q60 14 87 35t39.5 89t12.5 207q0 135 -13.5 192t-40 71t-87.5 16v33q107 25 219 92q12 8 20 8q20 0 24.5 -52t0.5 -91q21 12 74.5 40.5t84 43t78.5 30t84 15.5q52 0 102.5 -29.5t69.5 -97.5q185 98 320 98q96 0 140 -43t53.5 -110.5t9.5 -194.5v-178
q-3 -77 -2 -105.5t9.5 -37t31.5 -11.5q8 -1 55.5 -11t54.5 -11l-14 -27h-379l-6 27q62 16 85 35t32.5 81t9.5 217q0 92 -15.5 156t-55.5 98.5t-111 34.5q-90 0 -209 -55q5 -42 7 -144.5t4 -211t3 -140.5q2 -27 9 -37.5t26.5 -15.5t83.5 -14v-31h-125q-17 0 -126 -4t-130 -4
l-6 31q66 13 95 34.5t38.5 76t7.5 185.5l-2 97q-2 123 -37.5 187.5t-116.5 64.5q-39 0 -82 -14t-82 -33.5t-67 -34.5q-1 -17 -2 -86.5t-2 -114.5v-102q2 -179 6 -195q4 -18 29 -32.5t108 -26.5v-35q-12 0 -86 4t-88 4z" />
    <glyph glyph-name="n" unicode="n" horiz-adv-x="961" 
d="M37 14l-2 29q54 10 79 21t33 25t11 38q8 55 11 135t3 162q0 114 -7.5 155.5t-32 53t-91.5 18.5q0 13 -2 19q43 11 114.5 42.5t75.5 35.5q38 20 45 20q15 0 19 -29t4 -96q110 62 181 88.5t136 26.5q97 0 141.5 -42.5t55 -103t10.5 -159.5v-238q0 -141 13 -154q7 -7 51 -17
t51 -13l2 -31q-75 12 -174 12q-84 0 -201 -12v29q91 18 113 57q15 33 20.5 139.5t5.5 165.5q0 88 -7.5 144.5t-41.5 96.5t-106 40q-32 0 -97 -13t-153 -59l-6 -266q-2 -170 4 -225q2 -24 9.5 -36t33.5 -21.5t88 -16.5l-2 -31q-22 2 -63 5t-105 5h-219z" />
    <glyph glyph-name="o" unicode="o" horiz-adv-x="961" 
d="M78 375q0 88 32.5 159.5t89.5 123.5t133 80t163 28q79 0 149.5 -29t123.5 -80t83.5 -120.5t30.5 -149.5q0 -104 -49.5 -195t-140 -146.5t-208.5 -55.5q-89 0 -183.5 39t-159 125.5t-64.5 220.5zM209 430q0 -93 37 -185t103.5 -151t146.5 -59q70 0 127 38.5t91 109.5
t34 161q0 91 -39.5 177.5t-109 141t-153.5 54.5q-68 0 -122 -37t-84.5 -103t-30.5 -147z" />
    <glyph glyph-name="p" unicode="p" horiz-adv-x="981" 
d="M31 625l-8 28q48 29 67 37q14 0 87.5 42t101.5 77q8 -24 22 -141l86 34q134 56 203 56q75 0 149.5 -49t121 -132t46.5 -178q0 -121 -55 -201.5t-135.5 -124t-155 -60.5t-112.5 -17q-62 0 -148 29q0 -18 -2 -113t-2 -111v-182q0 -64 5 -91t18.5 -34.5t46.5 -9.5l73 -4
q25 0 25 -19q0 -12 -7.5 -15t-35.5 -3q-124 0 -155 -1.5t-204 -12.5q0 18 -2 30q51 4 68 14.5t27 34.5q16 44 21 176.5t5 276.5l2 125q0 144 -2 297.5t-8 187.5q-5 20 -15.5 38.5t-25 30t-29.5 11.5q-11 0 -73 -26zM299 627l-2 -506l92 -31q105 -35 146 -35q49 0 109 24.5
t105.5 82.5t45.5 151q0 102 -47 188.5t-117 135.5t-133 49q-32 0 -199 -59z" />
    <glyph glyph-name="q" unicode="q" horiz-adv-x="961" 
d="M539 -569l-4 34q60 6 89.5 20t42 45.5t16 91t3.5 192.5v227l-113 -35q-89 -29 -151 -29q-92 0 -171.5 47t-127 129t-47.5 177q0 122 70 221t180.5 154t230.5 55q81 0 143 -29q40 -22 58 -22q10 0 47.5 32.5t44.5 32.5q14 0 14 -10q0 -8 -10 -31q-17 -46 -23.5 -96.5
t-10.5 -171.5t-7 -315v-338q1 -75 2 -140t2.5 -102t5 -56t8.5 -24q4 -2 52.5 -8t70.5 -10v-33q-32 2 -98 2q-30 0 -170 -4q-108 -6 -147 -6zM694 193l4 178q0 225 -8 237q-15 29 -84 61.5t-133 32.5q-73 0 -132.5 -41t-95.5 -117t-36 -175q0 -97 41 -172.5t110 -115.5
t144 -40q63 0 101.5 15.5t84.5 43.5q4 46 4 93z" />
    <glyph glyph-name="r" unicode="r" horiz-adv-x="641" 
d="M49 -2l2 29q50 10 69 20t33 47t18.5 111t4.5 227q0 121 -13 161t-65 40q-31 0 -63 -8l4 32l258 150q4 -62 4 -170l107 61q8 5 14 9q11 6 25 14.5t48 29t54 33.5l8 -4q6 -6 14 -10q30 -14 47 -32t17 -52q0 -39 -32 -64t-77 -30q0 34 -16 52t-45 18q-30 0 -71 -21.5
t-62 -40.5q-25 -22 -29.5 -36.5t-5.5 -71.5q-6 -169 -6 -179q0 -195 20 -241q9 -16 20 -19.5t38 -3.5l26 2l119 2l-2 -41q-5 0 -63 -2t-78 -2z" />
    <glyph glyph-name="s" unicode="s" horiz-adv-x="662" 
d="M55 225l35 -2q0 -19 32.5 -62t87.5 -77.5t120 -34.5q47 0 94 20t47 87q0 70 -49 113q-49 42 -111 73l-75 35q-66 34 -105 72q-39 37 -39 96q0 46 33 96.5t95.5 83.5t141.5 33q48 0 160 -15l33 -170h-35q-9 35 -41.5 66.5t-76 53.5t-74.5 22q-53 0 -86 -33t-33 -84
q0 -41 24 -65q24 -25 91 -58l61 -29q83 -39 142 -91q59 -53 59 -146q0 -35 -14.5 -74.5t-43.5 -56.5q-83 -53 -137 -68.5t-110 -15.5q-20 0 -57 5t-52 8t-52 14t-48 14q8 40 8 57q0 25 -8.5 68.5t-16.5 64.5z" />
    <glyph glyph-name="t" unicode="t" horiz-adv-x="598" 
d="M145 287l5 389q-46 6 -107 6q2 8 2 25q87 53 136 101t116 136l-10 -180q86 -8 188 -8q49 0 107 2l-2 -62q-52 -6 -107 -6q-5 0 -39 1.5t-106 4.5q-19 0 -28.5 -3.5t-13 -13.5t-5 -38t-2.5 -59l-5 -312q-2 -90 20.5 -148.5t108.5 -58.5q33 0 81.5 14.5t111.5 43.5
q2 -8 2.5 -12t1.5 -9q-35 -38 -128.5 -75t-168.5 -37q-65 0 -111.5 44.5t-46.5 153.5v101z" />
    <glyph glyph-name="u" unicode="u" horiz-adv-x="938" 
d="M20 606v41l222 123l20 8q14 0 14 -18l-12 -172q-12 -204 -12 -252q0 -113 30 -187.5t140 -74.5q35 0 72.5 11.5t87 35t77.5 37.5q0 75 3 98l6 205q3 93 -6 131.5t-34.5 49.5t-84.5 13l-2 37l266 62q-5 -90 -10.5 -171.5t-10 -174.5t-4.5 -138q0 -146 19 -204q52 2 112 24
v-45q-113 -31 -229 -74q-17 56 -27 142q-245 -125 -340 -125q-64 0 -128 61t-58 236l8 225q2 60 -4.5 91.5t-38.5 31.5q-18 0 -76 -27z" />
    <glyph glyph-name="v" unicode="v" horiz-adv-x="811" 
d="M412 -47h-31q-27 114 -83.5 272t-114.5 295.5t-70 147.5t-34.5 21.5t-37.5 19.5v24q33 -2 106 -2q110 0 256 8l-4 -34q-71 -8 -89.5 -16t-18.5 -25q0 -47 60 -228.5t95 -259.5q67 107 125 250.5t58 202.5q0 46 -29 60t-78 16l4 32l70 2q54 -6 94 -6q63 0 115 12v-30
q-46 -19 -78.5 -68t-46.5 -88q-3 -5 -17 -38.5t-20 -43.5l-180 -397z" />
    <glyph glyph-name="w" unicode="w" horiz-adv-x="1260" 
d="M377 -37l-33 -2q-17 135 -135 504q-34 100 -55 144t-42.5 61.5t-64.5 34.5v24q27 4 76 4q120 0 165 2t99 8l-6 -38q-51 -6 -69.5 -16t-18.5 -34q0 -52 36 -170t87 -262l12 -28q8 22 10 28q16 28 51 96.5t70 145t51 129.5q-25 64 -47 81t-78 25l4 33l99 -2q16 0 188 8
l64 2l-2 -32q-101 -6 -101 -54q0 -15 32.5 -130.5t104.5 -342.5q47 90 88.5 174t75 167.5t33.5 121.5q0 30 -11.5 44.5t-25 18t-45.5 5.5l2 28q58 -4 125 -4q59 0 137 4q0 -18 -2 -26q-35 -8 -66 -52.5t-126 -226.5l-129 -256q-12 -17 -29.5 -55t-39 -93t-25.5 -71h-31
q-3 19 -12 52.5t-17 62.5l-82 276q-3 9 -20.5 62.5t-32.5 97.5l-201 -416q-56 -126 -63 -133z" />
    <glyph glyph-name="x" unicode="x" horiz-adv-x="831" 
d="M33 0l2 37q39 6 58.5 17.5t49.5 49.5q24 27 30 34.5t58 66.5l140 157q-49 101 -104 193.5t-89 118.5q-16 13 -46.5 19t-78.5 12l4 36l84 -2q17 0 39 -0.5t51 -1.5q100 0 170 11l9 -39q-30 -2 -46 -8t-16 -27q0 -32 107 -217q40 40 92.5 104.5t52.5 100.5q0 37 -98 49
l12 32q31 -2 82 -6q27 -2 80 -2t119 8v-32q-49 -3 -113.5 -69.5t-192.5 -225.5l-8 -10l109 -203q61 -111 99 -139t106 -33v-35q-46 6 -181 6q-125 0 -161 -6l-7 39q57 3 68.5 5.5t11.5 14.5q-42 91 -80 166l-49 94q-81 -81 -128.5 -150t-47.5 -89q0 -17 19.5 -25t72.5 -14
l4 -37q-48 5 -82.5 5.5t-64.5 0.5q-74 0 -137 -6z" />
    <glyph glyph-name="y" unicode="y" horiz-adv-x="831" 
d="M23 698v31q49 -6 137 -6q103 0 205 12l-3 -37q-41 -8 -59 -18.5t-18 -40.5q0 -48 43 -208t102 -318l66 118q43 74 102 206t59 181q0 70 -139 87l14 32q119 -12 207 -12q65 0 99 6l-2 -33q-27 -4 -48.5 -20.5t-40 -46t-40.5 -74.5l-109 -225q-2 -5 -76 -148
q-107 -210 -160.5 -334t-78 -206t-56.5 -217h-213v34q66 15 106 46.5t72 86t80 164.5l78 174q-57 215 -105 378t-91 265q-20 52 -40.5 77.5t-38 32t-52.5 13.5z" />
    <glyph glyph-name="z" unicode="z" horiz-adv-x="831" 
d="M41 -12l-14 28q97 94 203 216.5t193.5 236t166.5 221.5h-236q-118 2 -191.5 -23.5t-94.5 -91.5h-39q32 63 46 108.5t13 88.5q29 -15 41.5 -19.5t46.5 -9t70 -5.5t129 -1l235 -2q44 1 83 1.5t112 0.5q-44 -61 -70 -92l-157 -188l-123 -144q-17 -17 -108 -130t-99 -130
q84 -8 192 -8q97 0 159.5 11t110 51t68.5 118h31q-10 -90 -61 -239q-17 0 -21 4q-56 10 -137 10l-365 -2q-123 0 -184 -10z" />
    <glyph glyph-name="braceleft" unicode="{" horiz-adv-x="1044" 
d="M244 344v37q62 7 115.5 37t83.5 75.5t30 96.5q0 25 -20 155q-21 130 -21 162q0 95 47.5 178.5t133 138.5t188.5 68v-35q-74 -16 -127 -51.5t-78 -82t-25 -95.5q0 -12 5.5 -51.5t14 -94.5t16 -107t7.5 -68q0 -58 -19 -108.5t-55.5 -94t-90.5 -79.5t-123 -60v-5
q136 -45 212 -136.5t76 -205.5q0 -21 -20 -159q-23 -130 -23 -162q0 -78 59 -141.5t171 -87.5v-35q-103 13 -188.5 68t-133 138.5t-47.5 178.5q0 22 20.5 154t20.5 163q0 51 -30 96.5t-83.5 75.5t-115.5 37z" />
    <glyph glyph-name="bar" unicode="|" horiz-adv-x="1087" 
d="M496 -295v1815h96v-1815h-96z" />
    <glyph glyph-name="braceright" unicode="}" horiz-adv-x="1044" 
d="M801 381v-37q-99 -12 -164.5 -71.5t-65.5 -137.5q0 -18 21 -155q20 -136 20 -162q0 -94 -47 -178t-132 -139t-189 -68v35q113 24 171 87.5t58 141.5q0 23 -21.5 162.5t-21.5 158.5q0 75 34 141.5t99 118.5t156 82v5q-91 30 -156 82t-99 118.5t-34 141.5q0 27 21 159
q22 150 22 162q0 78 -58 141.5t-171 87.5v35q104 -13 189 -68t132 -139t47 -178q0 -28 -20.5 -159t-20.5 -158q0 -78 65.5 -137.5t164.5 -71.5z" />
    <glyph glyph-name="asciitilde" unicode="~" 
d="M160 557h-45q7 130 58.5 195.5t103 81.5t85.5 16q45 0 124.5 -22.5t281.5 -110.5q70 -31 117 -46.5t71 -19.5t50 -4q42 0 84 17t74 61.5t40 120.5h47q-1 -88 -37 -154.5t-94.5 -101.5t-128.5 -35q-43 0 -72 6.5t-98 32.5t-227 90q-98 41 -149 54.5t-87 13.5
q-158 0 -198 -195z" />
    <glyph glyph-name="Adieresis" unicode="&#xc4;" horiz-adv-x="1280" 
d="M864 -4v33q46 8 73.5 21t27.5 44q0 29 -18 84t-27 76l-74 201q-58 8 -189 8h-79q-119 4 -209 -12l-74 -185q-49 -116 -49 -145q0 -35 31.5 -58.5t128.5 -37.5v-33q-117 14 -199 14q-84 0 -182 -8v29q60 15 92 47q24 21 63.5 99.5t80 171t58.5 144.5l160 383
q30 69 61.5 144.5t59.5 151.5t41 122q0 13 6 19l33 2q31 -111 68 -213l210 -563q81 -211 122.5 -311.5t72.5 -143.5q26 -37 107 -45v-35q-82 8 -158 8q-60 0 -111.5 -3t-81.5 -5.5t-45 -3.5zM547 897l-113 -291q-23 -62 -31 -78q76 -12 175 -12l92 2q83 0 149 4
q-35 102 -45 121l-72 184q-12 30 -45.5 109t-48.5 108q-19 -42 -32.5 -76.5t-28.5 -70.5zM764 1416q0 32 23 55t53 23q33 0 55.5 -23.5t22.5 -54.5q0 -30 -23 -53t-55 -23q-31 0 -53.5 22.5t-22.5 53.5zM446 1416q0 31 22.5 54.5t55.5 23.5q34 0 55 -23.5t21 -54.5
q0 -29 -21.5 -52.5t-54.5 -23.5q-32 0 -55 23t-23 53z" />
    <glyph glyph-name="Aring" unicode="&#xc5;" horiz-adv-x="1280" 
d="M864 -4v33q46 8 73.5 21t27.5 44q0 29 -18 84t-27 76l-74 201q-58 8 -189 8h-79q-119 4 -209 -12l-74 -185q-49 -116 -49 -145q0 -35 31.5 -58.5t128.5 -37.5v-33q-117 14 -199 14q-84 0 -182 -8v29q60 15 92 47q24 21 63.5 99.5t80 171t58.5 144.5l160 383
q30 69 61.5 144.5t59.5 151.5t41 122q0 13 6 19l33 2q31 -111 68 -213l210 -563q81 -211 122.5 -311.5t72.5 -143.5q26 -37 107 -45v-35q-82 8 -158 8q-60 0 -111.5 -3t-81.5 -5.5t-45 -3.5zM547 897l-113 -291q-23 -62 -31 -78q76 -12 175 -12l92 2q83 0 149 4
q-35 102 -45 121l-72 184q-12 30 -45.5 109t-48.5 108q-19 -42 -32.5 -76.5t-28.5 -70.5zM491 1564q0 66 47 112t113 46q67 0 113.5 -46.5t46.5 -111.5q0 -43 -21 -79.5t-57.5 -58.5t-81.5 -22q-66 0 -113 47t-47 113zM542 1564q0 -43 32.5 -75.5t76.5 -32.5t76.5 31.5
t32.5 76.5q0 44 -31.5 76.5t-77.5 32.5q-47 0 -78 -32t-31 -77z" />
    <glyph glyph-name="Ccedilla" unicode="&#xc7;" horiz-adv-x="1280" 
d="M1204 201q-5 -13 -43 -148q-108 -32 -196 -49.5t-191 -17.5q-124 0 -248 44t-223 130.5t-157 211t-58 283.5q0 218 107.5 368t274 221t343.5 71q139 0 268 -49q60 -19 90 -19q14 3 20.5 4t16.5 2q6 0 13 -8l-15 -57q-21 -75 -37 -191q-18 3 -24 12.5t-6 30.5
q-2 63 -17 86q-27 44 -135 90t-217 46q-144 0 -260.5 -71.5t-184 -209.5t-67.5 -324q0 -171 59.5 -294.5t149 -195.5t182 -104t160.5 -32q108 0 179 35.5t111.5 85t78.5 118.5q15 29 26 29q19 0 19 -18q0 -13 -19 -80zM696 20h51l-51 -96q143 -46 143 -157
q0 -65 -46.5 -114.5t-129.5 -75t-180 -19.5v41q156 4 204 46t48 85q0 98 -158 106q110 165 119 184z" />
    <glyph glyph-name="Eacute" unicode="&#xc9;" horiz-adv-x="1153" 
d="M1075 293h31q-16 -104 -35 -172.5t-49 -130.5q-33 3 -90 4.5t-160 1.5q-62 0 -133 2t-61 2q-65 0 -151.5 -1.5t-208.5 -5.5t-179 -7l2 34q31 7 63 15.5t43.5 18.5t16.5 24.5t10 52.5q6 38 11.5 137.5t9 223.5t2.5 155l-7 318q-3 148 -11.5 200t-32.5 69t-91 30q0 16 2 26
h641q108 0 326 8q-5 -86 -18 -172t-33 -86q-25 0 -25 15q0 6 4 38t4 37q0 73 -87.5 93t-209.5 20q-147 0 -307 -20q-18 -166 -18 -279q0 -74 1 -170t1 -90q24 -2 147 -2q212 0 291 8q45 5 60.5 12t29.5 35.5t31 87.5l29 -2q0 -104 -0.5 -186t-1.5 -188h-35q-3 92 -27.5 128
t-94.5 46t-249 10q-115 0 -180 -10l-4 -142q-7 -260 18 -401q18 -5 43 -11t47.5 -9.5t64.5 -7t105 -3.5q157 0 246.5 23t137 74t81.5 147zM476 1382l197 356h139l-288 -356h-48z" />
    <glyph glyph-name="Ntilde" unicode="&#xd1;" horiz-adv-x="1579" 
d="M33 1255v41q90 -6 115 -7.5t59 -0.5l86 2q60 -76 141 -161t181.5 -182.5t113.5 -110.5l590 -560q8 125 8 379v193q0 154 -7.5 232t-28.5 115t-55 49.5t-114 25.5l11 28q14 2 49 2q31 0 62 -1t73 -5q25 -2 52 -2h44l127 2l2 -34q-60 -9 -86 -28t-37 -63
q-18 -82 -25.5 -321t-7.5 -455q0 -85 1.5 -163t3.5 -140t6 -115l-41 2q-69 149 -416 472l-375 350q-19 14 -92.5 83t-185.5 173l-13 -613q-5 -189 8 -264.5t57 -100t167 -48.5q0 -21 -4 -37q-16 0 -96 4q-82 4 -99 4q-16 0 -110 -4q-16 -1 -43 -3t-70 -5q-14 0 -20.5 5.5
t-6.5 18.5q0 15 5 18t22 5q44 5 63.5 16t31.5 42t17.5 98.5t6.5 173.5l6 477q2 157 -5.5 233t-44.5 123t-126 57zM1029 1620h41q-3 -125 -59.5 -161.5t-104.5 -36.5q-38 0 -67.5 12t-102.5 55q-39 24 -55.5 31.5t-38.5 7.5q-36 0 -63 -26.5t-26 -79.5h-41q17 198 166 198
q39 0 68 -13.5t82 -47.5q49 -30 66.5 -38.5t41.5 -8.5q36 0 64 28t29 80z" />
    <glyph glyph-name="Odieresis" unicode="&#xd6;" horiz-adv-x="1516" 
d="M84 645q0 182 96.5 336t256.5 244t339 90q122 0 241 -48t213 -134.5t150 -211.5t56 -272q0 -179 -89 -334.5t-247.5 -247.5t-358.5 -92q-153 0 -276 60t-209.5 162t-129 218.5t-42.5 229.5zM233 721q0 -175 82 -331t220 -249.5t292 -93.5q114 0 218.5 56.5t171.5 174.5
t67 291q0 138 -44.5 262t-124 217.5t-183.5 145t-219 51.5q-126 0 -236 -62.5t-177 -182.5t-67 -279zM842 1508q0 32 23 55t53 23q33 0 55.5 -23.5t22.5 -54.5q0 -30 -23 -53t-55 -23q-31 0 -53.5 22.5t-22.5 53.5zM524 1508q0 31 22.5 54.5t55.5 23.5q34 0 55 -23.5
t21 -54.5q0 -29 -21.5 -52.5t-54.5 -23.5q-32 0 -55 23t-23 53z" />
    <glyph glyph-name="Udieresis" unicode="&#xdc;" horiz-adv-x="1473" 
d="M43 1245l4 37q47 -2 143 -2q170 0 334 8l11 -33q-93 -11 -125.5 -27t-47.5 -44q-30 -56 -30 -469q0 -142 4 -250t16 -168q33 -151 161 -200.5t239 -49.5q63 0 151 18t167 65t106 128q55 160 55 629q0 140 -8.5 210.5t-27.5 102t-48 38.5t-92 7l-4 35q45 6 100 6
q215 0 289 -2v-41q-69 -3 -94.5 -15t-31 -43t-7.5 -132q-3 -189 -9 -335.5t-15 -241t-25.5 -168.5t-40.5 -120q-46 -85 -143 -132t-196 -61.5t-180 -14.5q-135 0 -249 40.5t-186.5 134.5t-72.5 242q0 36 2.5 197t2.5 240q0 277 -27 368q-7 23 -23.5 28.5t-101.5 14.5z
M859 1508q0 32 23 55t53 23q33 0 55.5 -23.5t22.5 -54.5q0 -30 -23 -53t-55 -23q-31 0 -53.5 22.5t-22.5 53.5zM541 1508q0 31 22.5 54.5t55.5 23.5q34 0 55 -23.5t21 -54.5q0 -29 -21.5 -52.5t-54.5 -23.5q-32 0 -55 23t-23 53z" />
    <glyph glyph-name="aacute" unicode="&#xe1;" horiz-adv-x="768" 
d="M246 590l-123 -55q-8 32 -8 47q0 51 62.5 94.5t141 70.5t109.5 27q27 0 67 -24t64 -48q21 -20 32.5 -39.5t20.5 -61.5t9 -107q0 -19 -5 -134l-4 -75q-4 -54 -4 -86q0 -41 11 -88q10 -48 45 -48q39 0 104 29v-41l-147 -59q-44 -15 -50 -15q-23 0 -45.5 30.5t-36.5 72.5
q-185 -103 -284 -103q-61 0 -92 35.5t-31 106.5q0 68 16.5 101t53.5 52q75 38 159 56.5t176 31.5l5 123v33q0 85 -48.5 134.5t-113.5 49.5q-31 0 -62.5 -17.5t-31.5 -49.5q0 -16 10 -43zM483 117q-3 33 6 188q-132 9 -212 -32t-80 -103q0 -45 24.5 -85t67.5 -40q48 0 194 72
zM243 889l197 356h139l-288 -356h-48z" />
    <glyph glyph-name="agrave" unicode="&#xe0;" horiz-adv-x="768" 
d="M246 590l-123 -55q-8 32 -8 47q0 51 62.5 94.5t141 70.5t109.5 27q27 0 67 -24t64 -48q21 -20 32.5 -39.5t20.5 -61.5t9 -107q0 -19 -5 -134l-4 -75q-4 -54 -4 -86q0 -41 11 -88q10 -48 45 -48q39 0 104 29v-41l-147 -59q-44 -15 -50 -15q-23 0 -45.5 30.5t-36.5 72.5
q-185 -103 -284 -103q-61 0 -92 35.5t-31 106.5q0 68 16.5 101t53.5 52q75 38 159 56.5t176 31.5l5 123v33q0 85 -48.5 134.5t-113.5 49.5q-31 0 -62.5 -17.5t-31.5 -49.5q0 -16 10 -43zM483 117q-3 33 6 188q-132 9 -212 -32t-80 -103q0 -45 24.5 -85t67.5 -40q48 0 194 72
zM353 1245l196 -356h-47l-289 356h140z" />
    <glyph glyph-name="acircumflex" unicode="&#xe2;" horiz-adv-x="768" 
d="M246 590l-123 -55q-8 32 -8 47q0 51 62.5 94.5t141 70.5t109.5 27q27 0 67 -24t64 -48q21 -20 32.5 -39.5t20.5 -61.5t9 -107q0 -19 -5 -134l-4 -75q-4 -54 -4 -86q0 -41 11 -88q10 -48 45 -48q39 0 104 29v-41l-147 -59q-44 -15 -50 -15q-23 0 -45.5 30.5t-36.5 72.5
q-185 -103 -284 -103q-61 0 -92 35.5t-31 106.5q0 68 16.5 101t53.5 52q75 38 159 56.5t176 31.5l5 123v33q0 85 -48.5 134.5t-113.5 49.5q-31 0 -62.5 -17.5t-31.5 -49.5q0 -16 10 -43zM483 117q-3 33 6 188q-132 9 -212 -32t-80 -103q0 -45 24.5 -85t67.5 -40q48 0 194 72
zM360 1245h90l199 -356h-47l-195 215l-199 -215h-47z" />
    <glyph glyph-name="adieresis" unicode="&#xe4;" horiz-adv-x="768" 
d="M246 590l-123 -55q-8 32 -8 47q0 51 62.5 94.5t141 70.5t109.5 27q27 0 67 -24t64 -48q21 -20 32.5 -39.5t20.5 -61.5t9 -107q0 -19 -5 -134l-4 -75q-4 -54 -4 -86q0 -41 11 -88q10 -48 45 -48q39 0 104 29v-41l-147 -59q-44 -15 -50 -15q-23 0 -45.5 30.5t-36.5 72.5
q-185 -103 -284 -103q-61 0 -92 35.5t-31 106.5q0 68 16.5 101t53.5 52q75 38 159 56.5t176 31.5l5 123v33q0 85 -48.5 134.5t-113.5 49.5q-31 0 -62.5 -17.5t-31.5 -49.5q0 -16 10 -43zM483 117q-3 33 6 188q-132 9 -212 -32t-80 -103q0 -45 24.5 -85t67.5 -40q48 0 194 72
zM467 1014q0 32 23 55t53 23q33 0 55.5 -23.5t22.5 -54.5q0 -30 -23 -53t-55 -23q-31 0 -53.5 22.5t-22.5 53.5zM149 1014q0 31 22.5 54.5t55.5 23.5q34 0 55 -23.5t21 -54.5q0 -29 -21.5 -52.5t-54.5 -23.5q-32 0 -55 23t-23 53z" />
    <glyph glyph-name="atilde" unicode="&#xe3;" horiz-adv-x="768" 
d="M246 590l-123 -55q-8 32 -8 47q0 51 62.5 94.5t141 70.5t109.5 27q27 0 67 -24t64 -48q21 -20 32.5 -39.5t20.5 -61.5t9 -107q0 -19 -5 -134l-4 -75q-4 -54 -4 -86q0 -41 11 -88q10 -48 45 -48q39 0 104 29v-41l-147 -59q-44 -15 -50 -15q-23 0 -45.5 30.5t-36.5 72.5
q-185 -103 -284 -103q-61 0 -92 35.5t-31 106.5q0 68 16.5 101t53.5 52q75 38 159 56.5t176 31.5l5 123v33q0 85 -48.5 134.5t-113.5 49.5q-31 0 -62.5 -17.5t-31.5 -49.5q0 -16 10 -43zM483 117q-3 33 6 188q-132 9 -212 -32t-80 -103q0 -45 24.5 -85t67.5 -40q48 0 194 72
zM622 1126h41q-3 -125 -59.5 -161.5t-104.5 -36.5q-38 0 -67.5 12t-102.5 55q-39 24 -55.5 31.5t-38.5 7.5q-36 0 -63 -26.5t-26 -79.5h-41q17 198 166 198q39 0 68 -13.5t82 -47.5q49 -30 66.5 -38.5t41.5 -8.5q36 0 64 28t29 80z" />
    <glyph glyph-name="aring" unicode="&#xe5;" horiz-adv-x="768" 
d="M246 590l-123 -55q-8 32 -8 47q0 51 62.5 94.5t141 70.5t109.5 27q27 0 67 -24t64 -48q21 -20 32.5 -39.5t20.5 -61.5t9 -107q0 -19 -5 -134l-4 -75q-4 -54 -4 -86q0 -41 11 -88q10 -48 45 -48q39 0 104 29v-41l-147 -59q-44 -15 -50 -15q-23 0 -45.5 30.5t-36.5 72.5
q-185 -103 -284 -103q-61 0 -92 35.5t-31 106.5q0 68 16.5 101t53.5 52q75 38 159 56.5t176 31.5l5 123v33q0 85 -48.5 134.5t-113.5 49.5q-31 0 -62.5 -17.5t-31.5 -49.5q0 -16 10 -43zM483 117q-3 33 6 188q-132 9 -212 -32t-80 -103q0 -45 24.5 -85t67.5 -40q48 0 194 72
zM233 1071q0 66 47 112t113 46q67 0 113.5 -46.5t46.5 -111.5q0 -43 -21 -79.5t-57.5 -58.5t-81.5 -22q-66 0 -113 47t-47 113zM284 1071q0 -43 32.5 -75.5t76.5 -32.5t76.5 31.5t32.5 76.5q0 44 -31.5 76.5t-77.5 32.5q-47 0 -78 -32t-31 -77z" />
    <glyph glyph-name="ccedilla" unicode="&#xe7;" horiz-adv-x="768" 
d="M717 125l14 -29q-133 -110 -274 -110q-81 0 -167.5 33.5t-135.5 86.5q-31 37 -48.5 103.5t-17.5 128.5q0 125 67 227.5t164.5 159.5t182.5 57q51 0 142 -28.5t91 -53.5q0 -10 -28 -52t-45 -42q-8 0 -22.5 8t-49.5 27q-109 45 -180 45q-101 0 -152 -66t-51 -198
q0 -121 53 -204t127.5 -121t136.5 -38q52 0 96.5 18t96.5 48zM402 20h51l-51 -96q143 -46 143 -157q0 -65 -46.5 -114.5t-129.5 -75t-180 -19.5v41q156 4 204 46t48 85q0 98 -158 106q110 165 119 184z" />
    <glyph glyph-name="eacute" unicode="&#xe9;" horiz-adv-x="748" 
d="M707 520l-500 -108q5 -94 18.5 -145.5t53.5 -104.5q77 -101 186 -101q45 0 96 17t113 61l18 -24q-174 -125 -309 -125q-143 0 -223 108t-80 248q0 143 61 237.5t137 137.5t115 43q45 0 93.5 -14.5t95 -55.5t77.5 -112q9 -15 17 -20t29 -5zM209 451l131 28q8 4 60.5 16
t70.5 15q52 12 66 17t14 16q0 16 -24 54.5t-68.5 70.5t-104.5 32q-75 0 -106.5 -79t-38.5 -170zM286 889l197 356h139l-288 -356h-48z" />
    <glyph glyph-name="egrave" unicode="&#xe8;" horiz-adv-x="748" 
d="M707 520l-500 -108q5 -94 18.5 -145.5t53.5 -104.5q77 -101 186 -101q45 0 96 17t113 61l18 -24q-174 -125 -309 -125q-143 0 -223 108t-80 248q0 143 61 237.5t137 137.5t115 43q45 0 93.5 -14.5t95 -55.5t77.5 -112q9 -15 17 -20t29 -5zM209 451l131 28q8 4 60.5 16
t70.5 15q52 12 66 17t14 16q0 16 -24 54.5t-68.5 70.5t-104.5 32q-75 0 -106.5 -79t-38.5 -170zM343 1245l196 -356h-47l-289 356h140z" />
    <glyph glyph-name="ecircumflex" unicode="&#xea;" horiz-adv-x="748" 
d="M707 520l-500 -108q5 -94 18.5 -145.5t53.5 -104.5q77 -101 186 -101q45 0 96 17t113 61l18 -24q-174 -125 -309 -125q-143 0 -223 108t-80 248q0 143 61 237.5t137 137.5t115 43q45 0 93.5 -14.5t95 -55.5t77.5 -112q9 -15 17 -20t29 -5zM209 451l131 28q8 4 60.5 16
t70.5 15q52 12 66 17t14 16q0 16 -24 54.5t-68.5 70.5t-104.5 32q-75 0 -106.5 -79t-38.5 -170zM350 1245h90l199 -356h-47l-195 215l-199 -215h-47z" />
    <glyph glyph-name="edieresis" unicode="&#xeb;" horiz-adv-x="748" 
d="M707 520l-500 -108q5 -94 18.5 -145.5t53.5 -104.5q77 -101 186 -101q45 0 96 17t113 61l18 -24q-174 -125 -309 -125q-143 0 -223 108t-80 248q0 143 61 237.5t137 137.5t115 43q45 0 93.5 -14.5t95 -55.5t77.5 -112q9 -15 17 -20t29 -5zM209 451l131 28q8 4 60.5 16
t70.5 15q52 12 66 17t14 16q0 16 -24 54.5t-68.5 70.5t-104.5 32q-75 0 -106.5 -79t-38.5 -170zM497 1014q0 32 23 55t53 23q33 0 55.5 -23.5t22.5 -54.5q0 -30 -23 -53t-55 -23q-31 0 -53.5 22.5t-22.5 53.5zM179 1014q0 31 22.5 54.5t55.5 23.5q34 0 55 -23.5t21 -54.5
q0 -29 -21.5 -52.5t-54.5 -23.5q-32 0 -55 23t-23 53z" />
    <glyph glyph-name="iacute" unicode="&#xed;" horiz-adv-x="492" 
d="M66 -4l4 31q85 8 96 30q5 9 9 71.5t6.5 149t2.5 97.5q0 142 -4.5 182t-17.5 55q-4 5 -50 10t-46 13q0 16 18 20q119 37 233 131q7 0 19 -4q-10 -41 -17 -120t-11.5 -166t-4.5 -154q0 -50 3.5 -143.5t12.5 -126.5q8 -18 20 -23t48 -8q35 -1 70 -6l12 -29zM96 889l197 356
h139l-288 -356h-48z" />
    <glyph glyph-name="igrave" unicode="&#xec;" horiz-adv-x="492" 
d="M66 -4l4 31q85 8 96 30q5 9 9 71.5t6.5 149t2.5 97.5q0 142 -4.5 182t-17.5 55q-4 5 -50 10t-46 13q0 16 18 20q119 37 233 131q7 0 19 -4q-10 -41 -17 -120t-11.5 -166t-4.5 -154q0 -50 3.5 -143.5t12.5 -126.5q8 -18 20 -23t48 -8q35 -1 70 -6l12 -29zM176 1245
l196 -356h-47l-289 356h140z" />
    <glyph glyph-name="icircumflex" unicode="&#xee;" horiz-adv-x="492" 
d="M65 -4l4 31q85 8 96 30q5 9 9 71.5t6.5 149t2.5 97.5q0 142 -4.5 182t-17.5 55q-4 5 -50 10t-46 13q0 16 18 20q119 37 233 131q7 0 19 -4q-10 -41 -17 -120t-11.5 -166t-4.5 -154q0 -50 3.5 -143.5t12.5 -126.5q8 -18 20 -23t48 -8q35 -1 70 -6l12 -29zM203 1245h90
l199 -356h-47l-195 215l-199 -215h-47z" />
    <glyph glyph-name="idieresis" unicode="&#xef;" horiz-adv-x="492" 
d="M66 -4l4 31q85 8 96 30q5 9 9 71.5t6.5 149t2.5 97.5q0 142 -4.5 182t-17.5 55q-4 5 -50 10t-46 13q0 16 18 20q119 37 233 131q7 0 19 -4q-10 -41 -17 -120t-11.5 -166t-4.5 -154q0 -50 3.5 -143.5t12.5 -126.5q8 -18 20 -23t48 -8q35 -1 70 -6l12 -29zM330 1014
q0 32 23 55t53 23q33 0 55.5 -23.5t22.5 -54.5q0 -30 -23 -53t-55 -23q-31 0 -53.5 22.5t-22.5 53.5zM12 1014q0 31 22.5 54.5t55.5 23.5q34 0 55 -23.5t21 -54.5q0 -29 -21.5 -52.5t-54.5 -23.5q-32 0 -55 23t-23 53z" />
    <glyph glyph-name="ntilde" unicode="&#xf1;" horiz-adv-x="961" 
d="M37 14l-2 29q54 10 79 21t33 25t11 38q8 55 11 135t3 162q0 114 -7.5 155.5t-32 53t-91.5 18.5q0 13 -2 19q43 11 114.5 42.5t75.5 35.5q38 20 45 20q15 0 19 -29t4 -96q110 62 181 88.5t136 26.5q97 0 141.5 -42.5t55 -103t10.5 -159.5v-238q0 -141 13 -154q7 -7 51 -17
t51 -13l2 -31q-75 12 -174 12q-84 0 -201 -12v29q91 18 113 57q15 33 20.5 139.5t5.5 165.5q0 88 -7.5 144.5t-41.5 96.5t-106 40q-32 0 -97 -13t-153 -59l-6 -266q-2 -170 4 -225q2 -24 9.5 -36t33.5 -21.5t88 -16.5l-2 -31q-22 2 -63 5t-105 5h-219zM719 1126h41
q-3 -125 -59.5 -161.5t-104.5 -36.5q-38 0 -67.5 12t-102.5 55q-39 24 -55.5 31.5t-38.5 7.5q-36 0 -63 -26.5t-26 -79.5h-41q17 198 166 198q39 0 68 -13.5t82 -47.5q49 -30 66.5 -38.5t41.5 -8.5q36 0 64 28t29 80z" />
    <glyph glyph-name="oacute" unicode="&#xf3;" horiz-adv-x="961" 
d="M78 375q0 88 32.5 159.5t89.5 123.5t133 80t163 28q79 0 149.5 -29t123.5 -80t83.5 -120.5t30.5 -149.5q0 -104 -49.5 -195t-140 -146.5t-208.5 -55.5q-89 0 -183.5 39t-159 125.5t-64.5 220.5zM209 430q0 -93 37 -185t103.5 -151t146.5 -59q70 0 127 38.5t91 109.5
t34 161q0 91 -39.5 177.5t-109 141t-153.5 54.5q-68 0 -122 -37t-84.5 -103t-30.5 -147zM369 889l197 356h139l-288 -356h-48z" />
    <glyph glyph-name="ograve" unicode="&#xf2;" horiz-adv-x="961" 
d="M78 375q0 88 32.5 159.5t89.5 123.5t133 80t163 28q79 0 149.5 -29t123.5 -80t83.5 -120.5t30.5 -149.5q0 -104 -49.5 -195t-140 -146.5t-208.5 -55.5q-89 0 -183.5 39t-159 125.5t-64.5 220.5zM209 430q0 -93 37 -185t103.5 -151t146.5 -59q70 0 127 38.5t91 109.5
t34 161q0 91 -39.5 177.5t-109 141t-153.5 54.5q-68 0 -122 -37t-84.5 -103t-30.5 -147zM429 1245l196 -356h-47l-289 356h140z" />
    <glyph glyph-name="ocircumflex" unicode="&#xf4;" horiz-adv-x="961" 
d="M78 375q0 88 32.5 159.5t89.5 123.5t133 80t163 28q79 0 149.5 -29t123.5 -80t83.5 -120.5t30.5 -149.5q0 -104 -49.5 -195t-140 -146.5t-208.5 -55.5q-89 0 -183.5 39t-159 125.5t-64.5 220.5zM209 430q0 -93 37 -185t103.5 -151t146.5 -59q70 0 127 38.5t91 109.5
t34 161q0 91 -39.5 177.5t-109 141t-153.5 54.5q-68 0 -122 -37t-84.5 -103t-30.5 -147zM436 1245h90l199 -356h-47l-195 215l-199 -215h-47z" />
    <glyph glyph-name="odieresis" unicode="&#xf6;" horiz-adv-x="961" 
d="M78 375q0 88 32.5 159.5t89.5 123.5t133 80t163 28q79 0 149.5 -29t123.5 -80t83.5 -120.5t30.5 -149.5q0 -104 -49.5 -195t-140 -146.5t-208.5 -55.5q-89 0 -183.5 39t-159 125.5t-64.5 220.5zM209 430q0 -93 37 -185t103.5 -151t146.5 -59q70 0 127 38.5t91 109.5
t34 161q0 91 -39.5 177.5t-109 141t-153.5 54.5q-68 0 -122 -37t-84.5 -103t-30.5 -147zM563 1014q0 32 23 55t53 23q33 0 55.5 -23.5t22.5 -54.5q0 -30 -23 -53t-55 -23q-31 0 -53.5 22.5t-22.5 53.5zM245 1014q0 31 22.5 54.5t55.5 23.5q34 0 55 -23.5t21 -54.5
q0 -29 -21.5 -52.5t-54.5 -23.5q-32 0 -55 23t-23 53z" />
    <glyph glyph-name="otilde" unicode="&#xf5;" horiz-adv-x="961" 
d="M78 375q0 88 32.5 159.5t89.5 123.5t133 80t163 28q79 0 149.5 -29t123.5 -80t83.5 -120.5t30.5 -149.5q0 -104 -49.5 -195t-140 -146.5t-208.5 -55.5q-89 0 -183.5 39t-159 125.5t-64.5 220.5zM209 430q0 -93 37 -185t103.5 -151t146.5 -59q70 0 127 38.5t91 109.5
t34 161q0 91 -39.5 177.5t-109 141t-153.5 54.5q-68 0 -122 -37t-84.5 -103t-30.5 -147zM719 1126h41q-3 -125 -59.5 -161.5t-104.5 -36.5q-38 0 -67.5 12t-102.5 55q-39 24 -55.5 31.5t-38.5 7.5q-36 0 -63 -26.5t-26 -79.5h-41q17 198 166 198q39 0 68 -13.5t82 -47.5
q49 -30 66.5 -38.5t41.5 -8.5q36 0 64 28t29 80z" />
    <glyph glyph-name="uacute" unicode="&#xfa;" horiz-adv-x="938" 
d="M20 606v41l222 123l20 8q14 0 14 -18l-12 -172q-12 -204 -12 -252q0 -113 30 -187.5t140 -74.5q35 0 72.5 11.5t87 35t77.5 37.5q0 75 3 98l6 205q3 93 -6 131.5t-34.5 49.5t-84.5 13l-2 37l266 62q-5 -90 -10.5 -171.5t-10 -174.5t-4.5 -138q0 -146 19 -204q52 2 112 24
v-45q-113 -31 -229 -74q-17 56 -27 142q-245 -125 -340 -125q-64 0 -128 61t-58 236l8 225q2 60 -4.5 91.5t-38.5 31.5q-18 0 -76 -27zM383 889l197 356h139l-288 -356h-48z" />
    <glyph glyph-name="ugrave" unicode="&#xf9;" horiz-adv-x="938" 
d="M20 606v41l222 123l20 8q14 0 14 -18l-12 -172q-12 -204 -12 -252q0 -113 30 -187.5t140 -74.5q35 0 72.5 11.5t87 35t77.5 37.5q0 75 3 98l6 205q3 93 -6 131.5t-34.5 49.5t-84.5 13l-2 37l266 62q-5 -90 -10.5 -171.5t-10 -174.5t-4.5 -138q0 -146 19 -204q52 2 112 24
v-45q-113 -31 -229 -74q-17 56 -27 142q-245 -125 -340 -125q-64 0 -128 61t-58 236l8 225q2 60 -4.5 91.5t-38.5 31.5q-18 0 -76 -27zM419 1245l196 -356h-47l-289 356h140z" />
    <glyph glyph-name="ucircumflex" unicode="&#xfb;" horiz-adv-x="938" 
d="M20 606v41l222 123l20 8q14 0 14 -18l-12 -172q-12 -204 -12 -252q0 -113 30 -187.5t140 -74.5q35 0 72.5 11.5t87 35t77.5 37.5q0 75 3 98l6 205q3 93 -6 131.5t-34.5 49.5t-84.5 13l-2 37l266 62q-5 -90 -10.5 -171.5t-10 -174.5t-4.5 -138q0 -146 19 -204q52 2 112 24
v-45q-113 -31 -229 -74q-17 56 -27 142q-245 -125 -340 -125q-64 0 -128 61t-58 236l8 225q2 60 -4.5 91.5t-38.5 31.5q-18 0 -76 -27zM433 1245h90l199 -356h-47l-195 215l-199 -215h-47z" />
    <glyph glyph-name="udieresis" unicode="&#xfc;" horiz-adv-x="938" 
d="M20 606v41l222 123l20 8q14 0 14 -18l-12 -172q-12 -204 -12 -252q0 -113 30 -187.5t140 -74.5q35 0 72.5 11.5t87 35t77.5 37.5q0 75 3 98l6 205q3 93 -6 131.5t-34.5 49.5t-84.5 13l-2 37l266 62q-5 -90 -10.5 -171.5t-10 -174.5t-4.5 -138q0 -146 19 -204q52 2 112 24
v-45q-113 -31 -229 -74q-17 56 -27 142q-245 -125 -340 -125q-64 0 -128 61t-58 236l8 225q2 60 -4.5 91.5t-38.5 31.5q-18 0 -76 -27zM568 1014q0 32 23 55t53 23q33 0 55.5 -23.5t22.5 -54.5q0 -30 -23 -53t-55 -23q-31 0 -53.5 22.5t-22.5 53.5zM250 1014q0 31 22.5 54.5
t55.5 23.5q34 0 55 -23.5t21 -54.5q0 -29 -21.5 -52.5t-54.5 -23.5q-32 0 -55 23t-23 53z" />
    <glyph glyph-name="dagger" unicode="&#x2020;" horiz-adv-x="725" 
d="M201 1341h323v-26q-123 -53 -123 -121q0 -6 11.5 -74t11.5 -80q0 -44 -21 -112l-22 -76q180 25 268 113h31v-267h-29q-47 52 -132 81.5t-138 33.5q7 -74 31 -126.5t57 -80.5q-38 -135 -56.5 -300.5t-23 -300.5t-4.5 -267h-45q0 134 -4.5 269t-23 300t-56.5 299
q72 60 88 207q-53 -4 -137 -33.5t-133 -81.5h-29v267h31q88 -88 268 -113q-6 23 -22 76q-21 68 -21 112q0 6 11.5 74t11.5 80q0 70 -123 121v26z" />
    <glyph glyph-name="degree" unicode="&#xb0;" horiz-adv-x="874" 
d="M438 1280q66 0 127 -25.5t105.5 -69.5t70 -104t25.5 -129q0 -68 -25 -127t-71.5 -104.5t-106 -70.5t-125.5 -25q-88 0 -164 43.5t-120.5 118t-44.5 165.5q0 90 44.5 165.5t120.5 119t164 43.5zM436 1192q-97 0 -167 -70t-70 -168q0 -97 69.5 -168t167.5 -71t168 70
t70 169q0 65 -32.5 120t-88.5 86.5t-117 31.5z" />
    <glyph glyph-name="cent" unicode="&#xa2;" horiz-adv-x="768" 
d="M532 1090l62 204l45 -14l-59 -201q155 -36 155 -69q0 -11 -28 -53t-45 -42q-90 42 -117 54l-168 -557q78 -43 149 -43q76 0 191 65l14 -28q-136 -111 -274 -111q-44 0 -111 16l-84 -284l-43 12l84 285q-101 37 -158 104t-57 219q0 100 43.5 186t112.5 147t147 90t141 20z
M338 438l164 543q-63 14 -92 14q-101 0 -152 -66t-51 -198q0 -191 131 -293z" />
    <glyph glyph-name="sterling" unicode="&#xa3;" horiz-adv-x="1004" 
d="M57 635l27 53q32 -12 59 -12q44 0 59 0.5t44 2t51 3.5q1 157 15.5 245.5t38.5 132.5t63 83q88 92 180.5 126t153.5 34q64 0 147 -48q15 -10 23 -10q11 0 34 19l25 -25q-7 -12 -61 -61t-60 -58q-47 47 -110 79t-119 32q-30 0 -74.5 -28t-69.5 -68q-27 -44 -39 -150.5
t-12 -202.5l2 -94l166 4q182 6 270 25q9 -29 -20 -60q-410 -14 -422 -14q3 -150 -10.5 -228.5t-51.5 -138t-128 -157.5q72 -1 126.5 -2t77 -2.5t45 -3.5t72.5 -9q90 -8 129 -8q50 0 76 5.5t40.5 17t33.5 35.5l57 71l37 -18q-5 -15 -53 -79t-48 -71q-22 -37 -53 -56t-71 -19
q-31 0 -86 10l-80 14q-82 14 -168 14q-77 0 -159 -11t-122 -38l-8 -4l-31 25q74 67 180 196q36 43 52 118t16 212l-2 121q-19 2 -89.5 -2t-84.5 -4q6 0 -68 4z" />
    <glyph glyph-name="section" unicode="&#xa7;" horiz-adv-x="897" 
d="M467 12l-90 105q-110 122 -168 201t-82.5 141t-24.5 129q0 70 33 141t123 158q-49 68 -49 145q0 84 42.5 163.5t118 130t165.5 50.5q35 0 94 -14t59 -53q0 -29 -16 -56.5t-45 -27.5q-9 0 -87.5 25.5t-93.5 25.5q-47 0 -82 -20.5t-54 -54t-19 -66.5q0 -57 46.5 -125.5
t178.5 -225.5q152 -173 215.5 -281t63.5 -210q0 -104 -39.5 -167t-108.5 -132q70 -101 70 -201q0 -88 -60.5 -174t-147.5 -138t-159 -52q-75 0 -145 33t-70 61q0 22 27 56t59 34q26 0 55 -23q63 -42 93.5 -55.5t64.5 -13.5q53 0 93.5 28t61.5 74t21 101q0 59 -29 126
t-114 162zM395 303l74 -86q8 -10 37.5 -45.5t70 -85t44.5 -55.5q40 42 57.5 73t17.5 97q0 76 -29.5 144.5t-90.5 149.5t-183 228q-94 105 -108 129q-45 -45 -72 -87.5t-27 -105.5q0 -51 24 -103.5t72.5 -115t112.5 -137.5z" />
    <glyph glyph-name="bullet" unicode="&#x2022;" horiz-adv-x="768" 
d="M385 991q74 0 134 -36t96 -97.5t36 -134.5q0 -71 -35.5 -133t-97 -98.5t-133.5 -36.5q-73 0 -135 36.5t-97.5 98.5t-35.5 133q0 111 78.5 189.5t189.5 78.5z" />
    <glyph glyph-name="paragraph" unicode="&#xb6;" horiz-adv-x="981" 
d="M805 -184l-6 -52q-153 18 -260 60t-164 91t-99 108q-71 102 -119 217t-48 170q0 38 41 143t113 213t161 164q173 107 557 133l-6 -53q-10 -2 -88 -11q-109 -10 -156 -18t-100 -25l-23 -1097q20 -7 197 -43zM555 -119l20 1057q-62 -16 -95 -49t-52 -90q-21 -70 -27 -216
t-6 -335q0 -137 14.5 -206t45 -97.5t100.5 -63.5z" />
    <glyph glyph-name="germandbls" unicode="&#xdf;" horiz-adv-x="1004" 
d="M614 750v-5q73 -19 137 -53t114 -114t50 -213q0 -102 -30 -177.5t-78 -121.5t-100 -67.5t-101 -21.5q-86 0 -86 62q0 59 49 59q12 0 69 -22.5t69 -22.5q37 0 65.5 66t28.5 143q0 75 -28 173t-103 177q-55 58 -107 78.5t-123 32.5l-2 43q101 -2 172 23t107.5 86t36.5 165
q0 142 -63.5 215.5t-151.5 73.5q-103 0 -144 -71.5t-55 -186.5q-8 -68 -12 -186t-5 -236.5t-1 -251.5q0 -305 8 -331q5 -10 60.5 -23.5t60.5 -15.5v-33q-42 4 -89 4l-321 2v27q12 0 20 4q77 12 96 20t27 37q11 35 15 117.5t4 179.5q0 144 -4 203t-10.5 73t-22.5 17
q-115 13 -115 18q0 31 18 37t105 6q19 0 25 6t6 27q0 116 16 222t54.5 192t110 139t177.5 53q100 0 173 -43.5t111 -115.5t38 -156q0 -101 -61 -191t-210 -122z" />
    <glyph glyph-name="registered" unicode="&#xae;" horiz-adv-x="1665" 
d="M414 1151v39h411q147 0 232.5 -66.5t85.5 -173.5q0 -180 -238 -237l223 -318q29 -41 52.5 -61.5t37.5 -25.5t39 -7v-35h-196l-313 432h-82v-252q0 -67 6 -94t31.5 -39t89.5 -12v-35h-392v35q53 0 77 14.5t29 42.5t5 91v559q0 89 -14.5 115.5t-83.5 27.5zM666 1126v-383
q135 0 220 41t85 154q0 42 -14 78.5t-43.5 65.5t-68.5 45t-89 16q-41 0 -90 -17zM831 1481q203 0 378 -101t277.5 -275t102.5 -382q0 -207 -102 -380t-276.5 -274.5t-379.5 -101.5q-204 0 -378 101.5t-275.5 275t-101.5 379.5q0 207 102 381t276.5 275.5t376.5 101.5z
M831 1415q-184 0 -344 -92.5t-253 -251.5t-93 -348q0 -186 92.5 -345.5t250.5 -252t347 -92.5q188 0 347.5 92.5t252.5 251.5t93 346q0 190 -94 349t-253 251t-346 92z" />
    <glyph glyph-name="copyright" unicode="&#xa9;" horiz-adv-x="1665" 
d="M1163 1210h43l21 -299h-41q-75 252 -324 252q-102 0 -180 -49.5t-120 -143t-42 -222.5q0 -54 7.5 -117t41 -140t107 -130.5t196.5 -53.5q210 0 334 172l41 -18q-149 -217 -409 -217q-110 0 -201.5 38t-157.5 104t-101.5 152t-35.5 179q0 97 37.5 187t108 159t168.5 108
t218 39q55 0 93 -8t106 -31q23 -8 39 -8q34 0 51 47zM831 1481q203 0 378 -101t277.5 -275t102.5 -382q0 -207 -102 -380t-276.5 -274.5t-379.5 -101.5q-204 0 -378 101.5t-275.5 275t-101.5 379.5q0 207 102 381t276.5 275.5t376.5 101.5zM831 1415q-184 0 -344 -92.5
t-253 -251.5t-93 -348q0 -186 92.5 -345.5t250.5 -252t347 -92.5q188 0 347.5 92.5t252.5 251.5t93 346q0 190 -94 349t-253 251t-346 92z" />
    <glyph glyph-name="trademark" unicode="&#x2122;" horiz-adv-x="2134" 
d="M328 571v33q50 -2 73.5 8t33 43t9.5 111v565h-92q-51 0 -81.5 -9t-49.5 -38t-26 -92h-27v188h674v-188h-25q-11 82 -40.5 110.5t-117.5 28.5h-92v-565q0 -78 9 -111t33 -43t75 -8v-33h-356zM913 1380h238l295 -635l287 635h227v-32q-78 -4 -96.5 -24.5t-18.5 -104.5v-474
q0 -90 19 -115t96 -26v-33h-346v33q54 0 78 10t32.5 39t8.5 92l-4 515l-308 -689h-16l-322 676v-508q0 -66 5.5 -91t28.5 -34.5t83 -9.5v-33h-287v33q57 0 80.5 10.5t29 36.5t5.5 94v459q0 61 -5.5 86.5t-30 39.5t-79.5 18v32z" />
    <glyph glyph-name="acute" unicode="&#xb4;" horiz-adv-x="682" 
d="M190 889l197 356h139l-288 -356h-48z" />
    <glyph glyph-name="dieresis" unicode="&#xa8;" horiz-adv-x="682" 
d="M424 1014q0 32 23 55t53 23q33 0 55.5 -23.5t22.5 -54.5q0 -30 -23 -53t-55 -23q-31 0 -53.5 22.5t-22.5 53.5zM106 1014q0 31 22.5 54.5t55.5 23.5q34 0 55 -23.5t21 -54.5q0 -29 -21.5 -52.5t-54.5 -23.5q-32 0 -55 23t-23 53z" />
    <glyph glyph-name="notequal" unicode="&#x2260;" 
d="M25 818h602l210 533h80l-206 -533h388v-94h-425l-144 -370h569v-93h-605l-211 -531h-80l209 531h-387v93h423l145 370h-568v94z" />
    <glyph glyph-name="AE" unicode="&#xc6;" horiz-adv-x="2005" 
d="M786 1272v39q97 -12 222 -15q79 -4 225 -4l450 2l183 2q14 0 14 -12q0 -21 -17 -122t-34 -122l-12.5 5t-14.5 4q10 43 10 75q0 64 -69.5 91.5t-222.5 27.5q-57 0 -155 -5t-179 -15q-20 -102 -23 -349v-104q0 -57 2 -68q90 -8 209 -8l166 2q92 0 125.5 6t49 31t28.5 96h37
q0 -109 -0.5 -226t0.5 -144h-37q-5 94 -26 127.5t-80.5 42t-225.5 8.5h-100l-144 -2q-4 -31 -4 -197q0 -225 19 -354q114 -29 305 -29q229 0 311 60t129 188l33 2q-11 -145 -82 -307q-120 8 -274 8h-129q-141 0 -295.5 -4.5t-307.5 -15.5l-2 34q50 9 74 19t35.5 26t19.5 41
q27 89 27 277l-2 70q-68 6 -155.5 8t-149.5 2l-72 -2q-95 0 -147 -8l-103 -170q-53 -85 -67.5 -116t-14.5 -52q0 -71 144 -88v-37q-16 1 -84 4.5t-117 3.5h-88q-53 0 -69 -0.5t-40.5 -2t-46.5 -3.5v37q54 12 88 27.5t84 63.5t128.5 156.5t185.5 280.5l194 315
q60 97 77.5 126.5t56.5 95t87 147.5q-90 26 -129 31zM911 1133l-43 -70l-321 -537q77 -6 176 -6h96l90 2q10 0 60 2t59 2q2 24 0 78l-6 346q0 18 -2.5 62.5t-7 95t-13 85t-20.5 34.5q-8 0 -68 -94z" />
    <glyph glyph-name="Oslash" unicode="&#xd8;" horiz-adv-x="1516" 
d="M1219 1141l186 184l43 -43l-186 -182q174 -190 174 -451q0 -134 -51.5 -257.5t-145.5 -217.5t-222 -146.5t-274 -52.5q-85 0 -160 19t-130 47.5t-87.5 54t-66.5 56.5l-182 -181l-37 41l180 178q-102 119 -139 242t-37 217q0 175 94.5 329t253.5 245.5t344 91.5
q140 0 250.5 -50t192.5 -124zM369 299l751 743q-63 74 -162.5 138.5t-244.5 64.5q-97 0 -183.5 -36.5t-153.5 -105t-105 -164.5t-38 -214q0 -99 34 -213.5t102 -212.5zM1157 995l-751 -739q60 -68 128 -114t142.5 -70.5t150.5 -24.5q113 0 217.5 57t172 174.5t67.5 290.5
q0 104 -30.5 215.5t-96.5 210.5z" />
    <glyph glyph-name="infinity" unicode="&#x221e;" horiz-adv-x="1451" 
d="M649 779q68 156 149 216t221 60q161 0 272 -116t111 -301q0 -183 -108 -301t-241 -118q-89 0 -161.5 55t-175.5 231q-64 -124 -140 -178.5t-184 -54.5q-144 0 -243.5 103t-99.5 266q0 164 92 265t215 101q92 0 156.5 -47.5t136.5 -180.5zM745 576q71 -149 143.5 -206.5
t168.5 -57.5q123 0 205.5 89t82.5 238q0 147 -87 243t-195 96q-69 0 -120.5 -35.5t-93.5 -112.5q-24 -45 -104 -254zM620 702q-49 110 -112 162t-155 52q-106 0 -177.5 -74.5t-71.5 -199.5q0 -133 70.5 -212.5t159.5 -79.5q95 0 168 85q47 56 118 267z" />
    <glyph glyph-name="plusminus" unicode="&#xb1;" 
d="M111 862v94h524v527h94v-527h528v-94h-528v-524h-94v524h-524zM111 0v94h1146v-94h-1146z" />
    <glyph glyph-name="lessequal" unicode="&#x2264;" 
d="M1098 246l-1073 456v83l1073 454v-102l-950 -393l950 -396v-102zM24 -70h1076v-93h-1076v93z" />
    <glyph glyph-name="greaterequal" unicode="&#x2265;" 
d="M25 1239l1073 -456v-83l-1073 -454v102l950 393l-950 396v102zM24 -70h1076v-93h-1076v93z" />
    <glyph glyph-name="yen" unicode="&#xa5;" 
d="M51 1249l-6 35h98q17 0 30 -0.5t38 -1.5t50 -2.5t34 -1.5q26 0 72 2t112 4l47 -2l-4 -39q-70 -6 -95.5 -12t-25.5 -27q0 -15 37.5 -80t83.5 -136.5t123 -187t90 -138.5q30 46 70 116l76 133q28 47 60 100t55.5 99.5t23.5 71.5q0 72 -135 65l4 39l84 -4q10 0 66 -2t65 -2
q14 0 97 2t99 2l-2 -41q-70 -3 -115 -21t-100.5 -86t-130.5 -202l-90 -162l-37 -70q-9 -16 -24.5 -47t-34.5 -65h438v-60h-438l2 -166h436v-59h-436v-29q0 -120 3.5 -159.5t16.5 -52.5t52 -23q30 -7 57.5 -14.5t48.5 -12.5l-2 -26q8 0 -76 6l-61 4q-42 4 -66 4
q-25 0 -151 -8q-60 -4 -97.5 -7t-37.5 29q86 5 120 28t42 72.5t10 188.5h-424v59h424v166h-424v60h422l-72 119q-26 42 -85 144t-85 132q-117 143 -159 188.5t-75 60t-98 17.5z" />
    <glyph glyph-name="mu" unicode="&#xb5;" horiz-adv-x="1024" 
d="M109 785h135v-479q0 -116 32 -162q43 -63 135 -63q53 0 104.5 26t148.5 117v561h132v-505q0 -143 23 -178.5t61 -35.5q30 0 52 23t43 111h43q-9 -109 -49 -159q-57 -73 -144 -73q-65 0 -107.5 43.5t-53.5 151.5q-88 -95 -168.5 -143t-153.5 -48q-68 0 -111 30.5t-72 91.5
v-40q0 -117 8 -202q2 -22 19 -83q22 -81 22 -115q0 -44 -24 -70.5t-55 -26.5q-32 0 -57 26.5t-25 68.5q0 31 21 110q16 60 21 95q12 98 16 202l4 301v425z" />
    <glyph glyph-name="partialdiff" unicode="&#x2202;" horiz-adv-x="1003" 
d="M925 717q12 113 12 186q0 180 -94.5 278.5t-251.5 98.5q-106 0 -176 -40t-125 -119h-46q77 158 166 229.5t215 71.5q90 0 175.5 -49t138 -158t52.5 -295q0 -354 -154 -636q-173 -315 -438 -315q-156 0 -247.5 90t-91.5 245q0 117 46.5 229.5t117.5 190.5t158 124
q113 60 230 60q82 0 148.5 -31.5t109.5 -76.5q27 -28 55 -83zM908 628q-39 111 -116.5 168t-170.5 57q-90 0 -177 -62t-151 -217.5t-64 -310.5q0 -114 55 -175.5t140 -61.5q123 0 251 130q163 166 233 472z" />
    <glyph glyph-name="summation" unicode="&#x2211;" horiz-adv-x="1460" 
d="M1356 -528h-1313v36l671 901l-671 892v38h1278l27 -337h-40q-16 137 -77.5 196.5t-171.5 59.5h-740l562 -760l-629 -850h818q70 0 153 27q57 19 94.5 67.5t62.5 151.5l40 -7z" />
    <glyph glyph-name="product" unicode="&#x220f;" horiz-adv-x="1685" 
d="M1240 1260h-795v-1596q0 -83 37 -119t125 -36h36v-37h-597v37h35q88 0 125.5 36t37.5 119v1482q0 83 -37 119t-126 36h-35v38h1594v-38h-35q-88 0 -125 -35.5t-37 -119.5v-1482q0 -83 37 -119t125 -36h35v-37h-597v37h35q88 0 125 36t37 119v1596z" />
    <glyph glyph-name="pi" unicode="&#x3c0;" horiz-adv-x="1088" 
d="M1006 916v-146h-232q-17 -104 -28 -240.5t-11 -217.5q0 -90 35.5 -131.5t89.5 -41.5q44 0 74 28t36 83h36q-18 -150 -76 -214t-130 -64q-74 0 -124.5 69.5t-50.5 276.5q0 91 11 204q17 183 27 248h-235l-22 -305q-26 -239 -63 -369q-20 -72 -62 -107q-19 -17 -47 -17
q-39 0 -64.5 24.5t-25.5 58.5q0 28 10 52q6 15 55 83q33 45 51 97t33 168q3 22 24 315h-29q-70 0 -114 -28t-94 -113h-36q32 120 81 185t95 83.5t148 18.5h638z" />
    <glyph glyph-name="integral" unicode="&#x222b;" horiz-adv-x="555" 
d="M197 895l18 582q6 105 27 186.5t50 122.5q21 30 61.5 53.5t78.5 23.5q50 0 87.5 -33.5t37.5 -73.5q0 -47 -26.5 -75.5t-65.5 -28.5q-35 0 -76 36q-23 20 -40 20t-28.5 -14.5t-11.5 -49.5q0 -41 9 -145q37 -411 37 -663q0 -70 -14 -524q-5 -167 -20 -259
q-20 -122 -52 -175.5t-70.5 -75.5t-83.5 -22q-52 0 -85 34t-33 87q0 45 25.5 72t64.5 27q40 0 69 -32t49 -32q17 0 28 14t11 47q0 42 -9 120q-17 143 -26 338q-12 249 -12 440z" />
    <glyph glyph-name="ordfeminine" unicode="&#xaa;" horiz-adv-x="492" 
d="M164 1204l-86 -35q-6 21 -6 33q0 44 81.5 80.5t118.5 36.5q17 0 45.5 -12t54 -50t25.5 -108v-31q0 -19 -2 -47q0 -7 -2 -47t-2 -45q0 -80 31 -80q30 0 70 19l-3 -31q-11 -5 -30 -12.5t-29 -12.5q-58 -20 -65 -20q-18 0 -34 19t-22 38q-114 -57 -176 -57q-41 0 -61.5 21.5
t-20.5 64.5q0 67 33 88q85 43 221 59l4 68q3 68 -29 97q-32 28 -69 28q-19 0 -37 -10.5t-18 -24.5q0 -9 8 -29zM303 930q-1 14 1.5 47.5t2.5 56.5q-55 3 -95.5 -8t-60.5 -30t-20 -38q0 -25 15.5 -47t37.5 -22q43 0 119 41z" />
    <glyph glyph-name="ordmasculine" unicode="&#xba;" horiz-adv-x="641" 
d="M63 1077q0 72 36.5 126.5t98.5 83t132 28.5q68 0 124.5 -31t90 -82.5t33.5 -114.5q0 -95 -70.5 -167t-183.5 -72q-99 0 -180 59t-81 170zM154 1112q0 -84 52 -156.5t124 -72.5q67 0 111 49t44 129q0 55 -25 104t-67.5 80t-93.5 31q-64 0 -104.5 -47.5t-40.5 -116.5z" />
    <glyph glyph-name="Omega" unicode="&#x2126;" horiz-adv-x="1515" 
d="M57 313h36q5 -72 51 -105q30 -22 112 -22h270v67q-144 29 -268 145q-166 155 -166 399q0 245 185.5 417.5t483.5 172.5t480.5 -170t182.5 -417q0 -200 -113.5 -344.5t-322.5 -202.5v-67h275q79 0 115.5 28t42.5 99h36v-313h-559l22 302q116 37 187 150t71 327
q0 254 -124.5 393.5t-297.5 139.5q-108 0 -204 -58.5t-155.5 -180.5t-59.5 -280q0 -116 28 -224.5t83.5 -170.5t144.5 -96l23 -302h-559v313z" />
    <glyph glyph-name="ae" unicode="&#xe6;" horiz-adv-x="1130" 
d="M252 580l-121 -50q-14 44 -14 58q0 33 52.5 75.5t125 72.5t129.5 30q48 0 85.5 -32t72.5 -77q73 69 113.5 90t82.5 21q95 0 174 -59q78 -59 107 -162q3 -15 9 -21t28 -14v-31q-94 -12 -255 -43.5t-243 -58.5q-1 -171 94 -242t174 -71q50 0 127 47q51 32 58 32
q18 0 18 -20q0 -15 -49 -49t-122 -61t-142 -27q-80 0 -138 41.5t-90 97.5q-133 -77 -196.5 -104t-134.5 -27q-62 0 -93.5 34t-31.5 101q0 70 32 135q81 37 166 65.5t207 45.5v84q0 114 -37 170.5t-112 56.5q-42 0 -63 -15.5t-21 -47.5q0 -21 8 -45zM598 428l322 70
q26 4 26 22q0 23 -24.5 69t-72 82t-112.5 36q-57 0 -98.5 -75t-40.5 -204zM406 106l104 58q-9 28 -14 50t-13 97q-20 2 -59 2q-119 0 -175 -38.5t-56 -104.5q0 -32 17.5 -68t63.5 -36q54 0 132 40z" />
    <glyph glyph-name="oslash" unicode="&#xf8;" horiz-adv-x="961" 
d="M750 674l98 94l31 -31l-97 -94q101 -103 101 -256q0 -105 -49.5 -196.5t-141 -146t-207.5 -54.5q-64 0 -135 20.5t-141 73.5l-100 -100l-29 30l98 99q-100 103 -100 260q0 117 56.5 206.5t153 138t208.5 48.5q145 0 254 -92zM266 199l402 393q-28 44 -85.5 84.5
t-136.5 40.5q-68 0 -122 -37t-84.5 -103t-30.5 -147q0 -45 13.5 -111.5t43.5 -119.5zM692 555l-403 -393q89 -127 207 -127q67 0 125 38t92.5 109.5t34.5 159.5q0 46 -13.5 105.5t-42.5 107.5z" />
    <glyph glyph-name="questiondown" unicode="&#xbf;" horiz-adv-x="575" 
d="M473 -432l-29 -2q-14 60 -33 74.5t-73 21.5q-55 7 -117 40t-106.5 100t-44.5 171q0 65 18 128.5t54.5 114.5t90.5 83q30 17 43.5 29t20 32t10.5 62q1 24 4.5 30.5t16.5 6.5q20 0 20 -27l-10 -176q-2 -32 -17 -40.5t-77 -20.5q-56 -11 -81 -34t-30.5 -55t-5.5 -96
q0 -66 25.5 -111t88.5 -73t165 -39q42 -5 64 -12.5t22 -32.5q0 -7 -19 -90q-1 -6 -0.5 -33t0.5 -51zM465 676q0 -14 -27 -31q-41 -22 -76 -82q-11 -16 -26 -16q-16 0 -25.5 16.5t-9.5 22.5q-39 52 -65 65q-20 12 -22.5 15t-2.5 14q0 15 16 25q22 9 39.5 24.5t40.5 52.5
q12 23 29 23q16 0 31 -21q20 -35 32.5 -49t42.5 -30q10 -5 16.5 -11.5t6.5 -17.5z" />
    <glyph glyph-name="exclamdown" unicode="&#xa1;" horiz-adv-x="426" 
d="M197 434l41 -6q-9 -203 -9 -500q0 -121 4 -161q6 -40 27 -52q23 -17 23 -24q0 -14 -21 -17q-31 -11 -182 -69q-12 0 -12 14q0 10 2 19l94 571q6 34 29 203q4 4 4 22zM348 678q0 -14 -26 -31q-44 -23 -76 -82q-11 -16 -27 -16t-25.5 16.5t-9.5 22.5q-39 52 -65 65
q-20 12 -22.5 15t-2.5 14q0 15 17 25q44 20 79 77q14 23 29 23q17 0 31 -21q20 -35 33 -49t43 -30q22 -14 22 -29z" />
    <glyph glyph-name="logicalnot" unicode="&#xac;" 
d="M111 915v95h1146v-615h-92v520h-1054z" />
    <glyph glyph-name="radical" unicode="&#x221a;" horiz-adv-x="1131" 
d="M1053 1869h74l-312 -1947l-496 1021l-198 -91l-34 64l301 151l405 -823z" />
    <glyph glyph-name="florin" unicode="&#x192;" horiz-adv-x="1130" 
d="M860 801l-14 -60h-225l-54 -368q-38 -274 -98.5 -429.5t-177.5 -265.5q-72 -67 -153.5 -103t-172.5 -36q-94 0 -94 49q0 56 84 56q9 0 51 -2t47 -2q106 0 175.5 48t111 133.5t63.5 187t46 263.5l69 471l-149 2q2 22 10 50l149 4q11 70 26.5 128t52 125.5t100.5 127.5
q57 53 119.5 76.5t109.5 23.5q34 0 54 -14t20 -37q0 -66 -113 -60l-45 2q-78 3 -118.5 -30.5t-61.5 -107.5t-43 -232h231z" />
    <glyph glyph-name="approxequal" unicode="&#x2248;" 
d="M1052 1038h43q-3 -126 -72.5 -199.5t-169.5 -73.5q-46 0 -98 15t-275 106q-156 64 -221 64q-70 0 -118.5 -43.5t-67.5 -139.5h-43q4 89 33.5 147.5t86 92t112.5 33.5q43 0 89 -13q104 -30 291 -110q97 -42 156 -58q30 -8 67 -8q75 0 126 48t61 139zM1052 547h43
q-3 -127 -72.5 -200.5t-169.5 -73.5q-46 0 -150 31l-223 91q-156 63 -221 63q-70 0 -118.5 -43.5t-67.5 -139.5h-43q4 89 33 147.5t85.5 92.5t112.5 34q43 0 89 -13q105 -31 292 -111q98 -42 156 -57q30 -8 67 -8q75 0 126 47.5t61 139.5z" />
    <glyph glyph-name="Delta" unicode="&#x2206;" horiz-adv-x="1259" 
d="M1229 0h-1200l628 1387zM993 82l-399 967l-440 -967h839z" />
    <glyph glyph-name="guillemotleft" unicode="&#xab;" horiz-adv-x="938" 
d="M674 381l203 -385h-33l-360 390l364 386h29zM256 381l203 -385h-33l-363 389l361 387h35z" />
    <glyph glyph-name="guillemotright" unicode="&#xbb;" horiz-adv-x="938" 
d="M70 -4l200 387l-200 389h30l361 -387l-359 -389h-32zM483 -4l203 385l-203 391h35l361 -387l-363 -389h-33z" />
    <glyph glyph-name="ellipsis" unicode="&#x2026;" horiz-adv-x="2048" 
d="M1624 90q0 14 27 31q42 23 75 82q10 16 27 16t25 -14q0 -9 20 -39t55 -51q17 -8 21 -13t4 -16q0 -15 -18 -25q-22 -10 -38 -24.5t-40 -52.5q-15 -23 -29 -23q-16 0 -31 21q-20 37 -32.5 50t-42.5 29q-12 7 -15 9.5t-5.5 7.5t-2.5 12zM897 90q0 14 27 31q42 23 75 82
q10 16 27 16q15 0 25 -14q0 -9 20 -39t55 -51q17 -8 21 -13t4 -16q0 -15 -18 -25q-22 -10 -38 -24.5t-40 -52.5q-10 -14 -14.5 -18.5t-14.5 -4.5q-16 0 -31 21q-20 37 -32.5 50t-42.5 29q-12 7 -15 9.5t-5.5 7.5t-2.5 12zM170 90q0 14 27 31q42 23 75 82q8 16 27 16
q15 0 25 -14q0 -9 20 -39t55 -51q17 -8 21 -13t4 -16q0 -15 -18 -25q-22 -10 -39.5 -25.5t-38.5 -51.5q-10 -14 -14.5 -18.5t-14.5 -4.5q-16 0 -31 21q-18 34 -32 48.5t-43 30.5q-12 7 -15 9.5t-5.5 7.5t-2.5 12z" />
    <glyph glyph-name="nonbreakingspace" unicode="&#xa0;" horiz-adv-x="502" 
 />
    <glyph glyph-name="Agrave" unicode="&#xc0;" horiz-adv-x="1280" 
d="M864 -4v33q46 8 73.5 21t27.5 44q0 29 -18 84t-27 76l-74 201q-58 8 -189 8h-79q-119 4 -209 -12l-74 -185q-49 -116 -49 -145q0 -35 31.5 -58.5t128.5 -37.5v-33q-117 14 -199 14q-84 0 -182 -8v29q60 15 92 47q24 21 63.5 99.5t80 171t58.5 144.5l160 383
q30 69 61.5 144.5t59.5 151.5t41 122q0 13 6 19l33 2q31 -111 68 -213l210 -563q81 -211 122.5 -311.5t72.5 -143.5q26 -37 107 -45v-35q-82 8 -158 8q-60 0 -111.5 -3t-81.5 -5.5t-45 -3.5zM547 897l-113 -291q-23 -62 -31 -78q76 -12 175 -12l92 2q83 0 149 4
q-35 102 -45 121l-72 184q-12 30 -45.5 109t-48.5 108q-19 -42 -32.5 -76.5t-28.5 -70.5zM589 1738l196 -356h-47l-289 356h140z" />
    <glyph glyph-name="Atilde" unicode="&#xc3;" horiz-adv-x="1280" 
d="M864 -4v33q46 8 73.5 21t27.5 44q0 29 -18 84t-27 76l-74 201q-58 8 -189 8h-79q-119 4 -209 -12l-74 -185q-49 -116 -49 -145q0 -35 31.5 -58.5t128.5 -37.5v-33q-117 14 -199 14q-84 0 -182 -8v29q60 15 92 47q24 21 63.5 99.5t80 171t58.5 144.5l160 383
q30 69 61.5 144.5t59.5 151.5t41 122q0 13 6 19l33 2q31 -111 68 -213l210 -563q81 -211 122.5 -311.5t72.5 -143.5q26 -37 107 -45v-35q-82 8 -158 8q-60 0 -111.5 -3t-81.5 -5.5t-45 -3.5zM547 897l-113 -291q-23 -62 -31 -78q76 -12 175 -12l92 2q83 0 149 4
q-35 102 -45 121l-72 184q-12 30 -45.5 109t-48.5 108q-19 -42 -32.5 -76.5t-28.5 -70.5zM920 1620h41q-3 -125 -59.5 -161.5t-104.5 -36.5q-38 0 -67.5 12t-102.5 55q-39 24 -55.5 31.5t-38.5 7.5q-36 0 -63 -26.5t-26 -79.5h-41q17 198 166 198q39 0 68 -13.5t82 -47.5
q49 -30 66.5 -38.5t41.5 -8.5q36 0 64 28t29 80z" />
    <glyph glyph-name="Otilde" unicode="&#xd5;" horiz-adv-x="1516" 
d="M84 645q0 182 96.5 336t256.5 244t339 90q122 0 241 -48t213 -134.5t150 -211.5t56 -272q0 -179 -89 -334.5t-247.5 -247.5t-358.5 -92q-153 0 -276 60t-209.5 162t-129 218.5t-42.5 229.5zM233 721q0 -175 82 -331t220 -249.5t292 -93.5q114 0 218.5 56.5t171.5 174.5
t67 291q0 138 -44.5 262t-124 217.5t-183.5 145t-219 51.5q-126 0 -236 -62.5t-177 -182.5t-67 -279zM998 1620h41q-3 -125 -59.5 -161.5t-104.5 -36.5q-38 0 -67.5 12t-102.5 55q-39 24 -55.5 31.5t-38.5 7.5q-36 0 -63 -26.5t-26 -79.5h-41q17 198 166 198q39 0 68 -13.5
t82 -47.5q49 -30 66.5 -38.5t41.5 -8.5q36 0 64 28t29 80z" />
    <glyph glyph-name="OE" unicode="&#x152;" horiz-adv-x="2005" 
d="M1937 295l31 2q-6 -66 -26 -147t-60 -156q-20 0 -144 2t-147 2h-501q-125 0 -275 -12q-128 -9 -143 -9q-113 0 -226 50t-202.5 140t-142 214t-52.5 262q0 177 93 330t255.5 242.5t358.5 89.5q42 0 90 -5q71 -3 152 -5t212 -3l330 2q260 2 342 4q6 -6 8 -10q0 -7 -4 -41
t-4 -41q-3 -68 -12 -104t-27 -66l-33 13q13 41 13 73q0 52 -41 79t-107 34.5t-168 7.5q-75 0 -157.5 -3.5t-132.5 -14.5q-19 -158 -19 -437v-100q42 -4 107 -4q195 0 267 1.5t116 10.5q34 6 63 123h33q-3 -163 -3 -234q0 -72 1 -143h-35q0 94 -24 131t-100.5 47.5
t-276.5 10.5q-64 0 -146 -6q-6 -61 -6 -209q0 -234 18 -340q89 -27 230 -27q124 0 203 8.5t132.5 33t92.5 74.5t67 130zM1053 643v188q0 191 -8 261.5t-31 93.5q-24 27 -113 45t-172 18q-215 0 -371.5 -134t-156.5 -408q0 -139 48.5 -261t131 -212.5t185 -139.5t206.5 -49
q102 0 252 43q10 55 16 122.5t8.5 158t4.5 274.5z" />
    <glyph glyph-name="oe" unicode="&#x153;" horiz-adv-x="1409" 
d="M1368 512l-2 -33q-69 -11 -166 -29t-166 -32.5t-129 -28.5q-5 0 -26 -6q2 -73 7 -114t22.5 -76t58.5 -68q40 -30 90 -47t86 -17q32 0 57.5 11.5t85.5 46.5l43 20q8 0 14.5 -4.5t6.5 -11.5q0 -18 -52 -52.5t-122 -60.5t-129 -26q-76 0 -130 28t-82 60.5t-49 66.5
q-38 -52 -93.5 -86.5t-111 -49.5t-104.5 -15q-96 0 -189 47t-151.5 135t-58.5 209q0 90 34 165t91 125t132.5 76.5t153.5 26.5q95 0 178 -41.5t146 -124.5q32 48 79.5 84t95 57t71.5 21q103 0 164 -58q61 -59 112 -167q11 -20 15 -23.5t18 -7.5zM877 426l311 68q26 4 26 26
q0 33 -28 78.5t-72.5 78t-91.5 32.5q-137 0 -145 -283zM207 451q0 -59 17 -129t53.5 -136t93 -106.5t129.5 -40.5q62 0 118.5 37t90.5 107.5t34 170.5q0 87 -34.5 171t-102.5 139t-160 55q-62 0 -116.5 -31t-88.5 -91.5t-34 -145.5z" />
    <glyph glyph-name="endash" unicode="&#x2013;" horiz-adv-x="1024" 
d="M-12 330v108h1048v-108h-1048z" />
    <glyph glyph-name="emdash" unicode="&#x2014;" horiz-adv-x="2048" 
d="M-12 330v108h2072v-108h-2072z" />
    <glyph glyph-name="quotedblleft" unicode="&#x201c;" horiz-adv-x="854" 
d="M358 1378l23 -30q-41 -25 -68.5 -47t-46 -51.5t-18.5 -61.5q0 -24 14 -53.5t51 -40.5q25 -35 25 -47q0 -15 -19 -25q-28 -16 -48.5 -47.5t-26.5 -63.5h-25q-19 37 -34.5 54.5t-43.5 33.5l-10 9q-12 4 -12 18l6 14q12 21 16 47q26 208 217 291zM736 1378l23 -30
q-41 -25 -68.5 -47t-46 -51.5t-18.5 -61.5q0 -24 14 -53.5t51 -40.5q25 -35 25 -47q0 -15 -19 -25q-28 -16 -48.5 -47.5t-26.5 -63.5h-25q-19 37 -34.5 54.5t-43.5 33.5l-10 9q-12 4 -12 18l6 14q12 21 16 47q26 208 217 291z" />
    <glyph glyph-name="quotedblright" unicode="&#x201d;" horiz-adv-x="854" 
d="M102 909l-22 31q62 39 97.5 75t35.5 85q0 26 -14 54.5t-52 39.5q-24 35 -24 47q0 14 18 25q31 16 50.5 47t25.5 63h25q20 -37 34 -53t43 -35l11 -8q12 -4 12 -18l-6 -15q-12 -20 -17 -47q-9 -75 -37 -130t-74.5 -95t-105.5 -66zM480 909l-22 31q62 39 97.5 75t35.5 85
q0 26 -14 54.5t-52 39.5q-24 35 -24 47q0 14 18 25q31 16 50.5 47t25.5 63h25q20 -37 34 -53t43 -35l11 -8q12 -4 12 -18l-6 -15q-12 -20 -17 -47q-9 -75 -37 -130t-74.5 -95t-105.5 -66z" />
    <glyph glyph-name="quoteleft" unicode="&#x2018;" horiz-adv-x="406" 
d="M319 1378l27 -30q-78 -47 -106.5 -84.5t-28.5 -77.5q0 -25 15.5 -53t52.5 -43q24 -27 24 -46q0 -12 -12 -20l-27 -18q-40 -40 -55 -99q-8 2 -25 2q-24 59 -80 88q-20 13 -20 25q16 47 18 57q28 214 217 299z" />
    <glyph glyph-name="quoteright" unicode="&#x2019;" horiz-adv-x="406" 
d="M80 909l-23 31q62 39 97.5 75t35.5 85q0 26 -14 55t-51 39q-25 35 -25 47q0 14 19 25q59 32 76 110h24q24 -40 35 -53.5t43 -34.5l10 -8q12 -4 12 -18l-6 -15q-12 -20 -16 -47q-9 -75 -37 -130t-74.5 -95t-105.5 -66z" />
    <glyph glyph-name="divide" unicode="&#xf7;" 
d="M614 264q0 26 21 44t47 18t46 -20t20 -46t-19.5 -46.5t-46.5 -20.5t-47.5 21.5t-20.5 49.5zM614 1145q0 27 21 44t47 17q27 0 46.5 -19.5t19.5 -45.5t-19 -47t-47 -21q-27 0 -47.5 22t-20.5 50zM111 653v92h1146v-92h-1146z" />
    <glyph glyph-name="lozenge" unicode="&#x25ca;" horiz-adv-x="1012" 
d="M549 1422l418 -713l-418 -709h-111l-391 709l391 713h111zM495 1325l-340 -616l340 -615l359 615z" />
    <glyph glyph-name="ydieresis" unicode="&#xff;" horiz-adv-x="831" 
d="M23 698v31q49 -6 137 -6q103 0 205 12l-3 -37q-41 -8 -59 -18.5t-18 -40.5q0 -48 43 -208t102 -318l66 118q43 74 102 206t59 181q0 70 -139 87l14 32q119 -12 207 -12q65 0 99 6l-2 -33q-27 -4 -48.5 -20.5t-40 -46t-40.5 -74.5l-109 -225q-2 -5 -76 -148
q-107 -210 -160.5 -334t-78 -206t-56.5 -217h-213v34q66 15 106 46.5t72 86t80 164.5l78 174q-57 215 -105 378t-91 265q-20 52 -40.5 77.5t-38 32t-52.5 13.5zM515 1014q0 32 23 55t53 23q33 0 55.5 -23.5t22.5 -54.5q0 -30 -23 -53t-55 -23q-31 0 -53.5 22.5t-22.5 53.5z
M197 1014q0 31 22.5 54.5t55.5 23.5q34 0 55 -23.5t21 -54.5q0 -29 -21.5 -52.5t-54.5 -23.5q-32 0 -55 23t-23 53z" />
    <glyph glyph-name="Ydieresis" unicode="&#x178;" 
d="M18 1249l-6 35h99q73 -3 107.5 -4.5t39.5 -1.5q28 0 75 2t113 4l48 -2l-5 -39q-70 -6 -95 -12t-25 -27q0 -22 74.5 -129t172 -235t138.5 -176q30 41 90 129l76 114q40 58 89.5 146.5t49.5 124.5q0 72 -135 65l4 39l84 -4q10 0 66 -2t65 -2q15 0 98 2t98 2l-2 -41
q-66 -3 -107 -22.5t-94 -83.5t-145 -203l-110 -166l-105 -164l4 -324q0 -120 3.5 -159.5t16.5 -52.5t52 -23q34 -7 106 -27l-2 -26q8 0 -75 6l-62 4q-40 4 -65 4h-43q-15 0 -121 -8q-85 -10 -123 -10v32q104 4 139 41q16 14 22 38t8.5 107t2.5 265q0 100 -2 123l-82 121
q-61 87 -116 161t-89 113q-107 135 -153 184.5t-79 64t-100 17.5zM824 1508q0 32 23 55t53 23q33 0 55.5 -23.5t22.5 -54.5q0 -30 -23 -53t-55 -23q-31 0 -53.5 22.5t-22.5 53.5zM506 1508q0 31 22.5 54.5t55.5 23.5q34 0 55 -23.5t21 -54.5q0 -29 -21.5 -52.5t-54.5 -23.5
q-32 0 -55 23t-23 53z" />
    <glyph glyph-name="fraction" unicode="&#x2215;" horiz-adv-x="150" 
d="M-346 -90l-27 12q33 51 118 194.5t200.5 349.5t239 436t239.5 460q46 3 94 18q-26 -46 -62.5 -108t-71 -121.5t-58.5 -99.5q-9 -17 -61.5 -109t-74.5 -131l-217 -408q-108 -204 -147 -282q-63 -132 -84 -170q-44 -9 -88 -41z" />
    <glyph glyph-name="Euro" unicode="&#x20ac;" horiz-adv-x="1004" 
d="M956 284q0 -13 -19 -80q-5 -13 -43 -148q-148 -68 -307 -68q-197 0 -330 159q-120 143 -149 358h-90l20 59h64q-1 17 -1 48q0 60 8 118h-91l20 60h82q44 209 168 342q138 148 334 148q63 0 158 -30q92 -29 113 -28q12 2 37 6q6 0 13 -8l-15 -67q-13 -57 -37 -191
q-18 3 -24 13q-3 4 -5.5 32.5t-16.5 81.5q-22 47 -84 90q-76 52 -159 52q-153 0 -248 -139q-81 -119 -99 -302h524l-20 -60h-508v-25q0 -64 9 -141h459l-20 -59h-431q32 -196 109 -317q94 -149 239 -149q188 0 295 234q13 29 26 29q19 0 19 -18z" />
    <glyph glyph-name="guilsinglleft" unicode="&#x2039;" horiz-adv-x="512" 
d="M256 381l203 -385h-33l-360 387l358 389h35z" />
    <glyph glyph-name="guilsinglright" unicode="&#x203a;" horiz-adv-x="512" 
d="M446 385l-362 -389h-33l203 385l-203 391h35z" />
    <glyph glyph-name="fi" unicode="&#xf001;" horiz-adv-x="981" 
d="M61 6l-2 33q71 17 94.5 30t30 40t6.5 102l3 467h-134v57q13 0 70 2t66 2v80q2 105 10 165t25 103t43.5 77.5t70.5 72.5q53 46 144.5 94.5t177.5 48.5q58 0 109.5 -20.5t82.5 -47.5t31 -38q0 -17 -43.5 -38.5t-59.5 -21.5q-9 0 -28 19q-31 33 -65 49t-93 16
q-96 0 -153.5 -38.5t-83 -100.5t-32.5 -130t-7 -167l2 -121q67 -8 129 -8q109 0 150.5 4t113.5 25l131 41q8 0 8 -10q0 -5 -3 -19.5t-3 -9.5q-24 -87 -31 -151.5t-6 -196.5l4 -258q0 -64 6.5 -86.5t33 -32.5t93.5 -16l-2 -39q-94 24 -196 24q-15 0 -89 -4t-85 -4v37
q74 0 90 24q21 32 26.5 115.5t5.5 208.5q0 129 -5.5 181.5t-25 77.5t-58 30.5t-130.5 5.5h-159q-9 -100 -9 -303q0 -149 2 -212.5t9 -92.5q3 -14 15.5 -18t47.5 -7l76 -6l2 -43q-89 11 -406 8z" />
    <glyph glyph-name="fl" unicode="&#xf002;" horiz-adv-x="1004" 
d="M84 -8l6 26q68 10 86.5 36t18.5 79q0 148 4 442v95h-121l2 47q54 4 121 2q3 123 15.5 208t43.5 152t90 133q77 86 157 116t140 30q37 0 69 -10.5t58 -32.5q6 6 55.5 35.5t69.5 29.5q-20 -49 -32 -90.5t-19 -106.5t-9.5 -154t-2.5 -243l2 -421q0 -117 2 -175
q5 -88 11 -108.5t34 -24.5q17 -3 100 -10l-6 -37q-66 6 -148 6q-26 0 -62.5 -1.5t-68 -3.5t-54 -3t-30.5 -2q-18 0 -18 19q0 8 2 14q77 3 92 35q27 55 27 323l4 273h-397q-7 -164 -7 -224l3 -288q2 -69 23.5 -92t107.5 -23q43 0 52 -2t9 -16q0 -9 -6 -15l-229 -4
q-23 0 -195 -14zM328 719l325 -2q56 5 66 8q4 58 4 137q0 38 -1.5 108.5t-6 148t-8.5 116.5q-16 10 -37 29q-39 22 -101 22q-81 0 -129 -42.5t-70.5 -118t-30 -166t-11.5 -240.5z" />
    <glyph glyph-name="daggerdbl" unicode="&#x2021;" horiz-adv-x="725" 
d="M248 1364h229v-27q-31 -26 -56.5 -63t-25.5 -66q0 -8 8.5 -53.5t8.5 -60.5q0 -22 -5.5 -55.5t-12.5 -63t-11 -45.5q70 6 119.5 23t115.5 75h21l-2 -225h-19q-60 57 -114.5 72.5t-120.5 15.5q4 -53 14 -77.5t43 -72.5q-26 -92 -38.5 -170.5t-12.5 -175.5q0 -178 51 -329
q-33 -48 -43 -73t-14 -79q53 3 83 7.5t71.5 24t80.5 58.5h19l2 -225h-21q-47 40 -85 59.5t-65.5 25.5t-84.5 13q4 -18 11 -47.5t12.5 -63.5t5.5 -55q0 -13 -8.5 -58.5t-8.5 -55.5q0 -29 25 -66t57 -63v-27h-229v27q28 22 55 61.5t27 67.5q0 13 -8.5 59.5t-8.5 54.5
q0 25 6 58t13.5 65t9.5 43q-57 -7 -85 -13t-67.5 -27t-83.5 -58h-20l2 225h18q41 -40 82 -59t71 -23.5t83 -7.5q-4 55 -15.5 82.5t-41.5 69.5q51 160 51 329t-51 346q28 38 40.5 67t16.5 83q-66 0 -120.5 -15.5t-115.5 -72.5h-18l-2 225h20q43 -38 83.5 -59.5t73 -28
t79.5 -10.5q-4 18 -10.5 46t-12.5 61t-6 57q0 8 8.5 54.5t8.5 59.5q0 30 -26.5 68.5t-55.5 60.5v27z" />
    <glyph glyph-name="periodcentered" unicode="&#x2219;" horiz-adv-x="362" 
d="M55 618q0 9 6 15t21 16q42 23 76 82q11 17 26 17q16 0 25.5 -15.5t9.5 -23.5q39 -50 66 -66q18 -9 21 -13t3 -16q0 -15 -16 -24q-24 -11 -40 -25.5t-40 -52.5q-13 -23 -29 -23q-15 0 -30 21q-18 33 -34 49.5t-42 30.5q-23 12 -23 28z" />
    <glyph glyph-name="quotesinglbase" unicode="&#x201a;" horiz-adv-x="406" 
d="M193 240h26q13 -29 36 -52t42 -34q27 -14 27 -25q0 -7 -11 -27q-5 -9 -17 -56.5t-17 -61.5q-26 -76 -68.5 -122t-130.5 -93l-19 34q58 37 96 72t38 86q0 62 -58 90q-14 6 -24.5 24t-10.5 34q0 6 31 34q43 38 60 97z" />
    <glyph glyph-name="quotedblbase" unicode="&#x201e;" horiz-adv-x="854" 
d="M121 -229l-23 34q131 71 131 156q0 40 -19 64t-52 47q-21 16 -25 47q69 31 96 121h21q32 -57 69 -76q25 -12 33 -18.5t8 -16.5q-9 -16 -12 -20q-11 -17 -18 -58q-14 -91 -61.5 -157.5t-147.5 -122.5zM502 -229l-21 34q131 70 131 156q0 59 -55 100l-16 11q-25 20 -25 47
q69 31 96 121h21q26 -54 69 -76q41 -20 41 -33l-12 -22q-7 -9 -11 -24t-7 -34q-14 -92 -61.5 -157.5t-149.5 -122.5z" />
    <glyph glyph-name="perthousand" unicode="&#x2030;" horiz-adv-x="2324" 
d="M420 1323q81 0 149.5 -40t110 -113.5t41.5 -165.5q0 -85 -36.5 -166.5t-107.5 -134t-167 -52.5q-125 0 -213 87t-88 237q0 99 42.5 179t114.5 124.5t154 44.5zM403 1282q-90 0 -137 -81t-47 -189q0 -62 14 -118.5t42.5 -103.5t66.5 -72.5t82 -25.5q35 0 76 21.5t72.5 82
t31.5 167.5q0 120 -52.5 219.5t-148.5 99.5zM1210 635q81 0 150 -41.5t110 -116t41 -164.5q0 -61 -20 -123.5t-60 -115t-99 -83t-132 -30.5q-79 0 -149.5 38.5t-112 112t-41.5 173.5q0 152 92.5 251t220.5 99zM1194 592q-62 0 -103.5 -38.5t-62 -100t-20.5 -131.5
q0 -82 26 -155t73 -118t107 -45q63 0 122 58.5t59 211.5q0 75 -23 149t-68 121.5t-110 47.5zM1933 635q63 0 117 -23.5t94.5 -65t65 -103t24.5 -130.5q0 -84 -36.5 -165.5t-107 -134t-165.5 -52.5q-80 0 -150 38.5t-111.5 112t-41.5 173.5t42.5 181t114.5 125t154 44z
M1917 592q-89 0 -136.5 -80.5t-47.5 -189.5q0 -124 58 -221t146 -97q63 0 122 58.5t59 211.5q0 75 -23 149t-68 121.5t-110 47.5zM324 -98l-35 14q91 132 228.5 351t252 409.5t174.5 298.5q41 74 72.5 130.5t116.5 207.5l22 35q34 0 52.5 2.5t45.5 11.5
q-151 -238 -334.5 -540.5t-324.5 -545t-186 -331.5q-52 -3 -84 -43z" />
    <glyph glyph-name="Acircumflex" unicode="&#xc2;" horiz-adv-x="1280" 
d="M864 -4v33q46 8 73.5 21t27.5 44q0 29 -18 84t-27 76l-74 201q-58 8 -189 8h-79q-119 4 -209 -12l-74 -185q-49 -116 -49 -145q0 -35 31.5 -58.5t128.5 -37.5v-33q-117 14 -199 14q-84 0 -182 -8v29q60 15 92 47q24 21 63.5 99.5t80 171t58.5 144.5l160 383
q30 69 61.5 144.5t59.5 151.5t41 122q0 13 6 19l33 2q31 -111 68 -213l210 -563q81 -211 122.5 -311.5t72.5 -143.5q26 -37 107 -45v-35q-82 8 -158 8q-60 0 -111.5 -3t-81.5 -5.5t-45 -3.5zM547 897l-113 -291q-23 -62 -31 -78q76 -12 175 -12l92 2q83 0 149 4
q-35 102 -45 121l-72 184q-12 30 -45.5 109t-48.5 108q-19 -42 -32.5 -76.5t-28.5 -70.5zM616 1739h90l199 -356h-47l-195 215l-199 -215h-47z" />
    <glyph glyph-name="Ecircumflex" unicode="&#xca;" horiz-adv-x="1153" 
d="M1075 293h31q-16 -104 -35 -172.5t-49 -130.5q-33 3 -90 4.5t-160 1.5q-62 0 -133 2t-61 2q-65 0 -151.5 -1.5t-208.5 -5.5t-179 -7l2 34q31 7 63 15.5t43.5 18.5t16.5 24.5t10 52.5q6 38 11.5 137.5t9 223.5t2.5 155l-7 318q-3 148 -11.5 200t-32.5 69t-91 30q0 16 2 26
h641q108 0 326 8q-5 -86 -18 -172t-33 -86q-25 0 -25 15q0 6 4 38t4 37q0 73 -87.5 93t-209.5 20q-147 0 -307 -20q-18 -166 -18 -279q0 -74 1 -170t1 -90q24 -2 147 -2q212 0 291 8q45 5 60.5 12t29.5 35.5t31 87.5l29 -2q0 -104 -0.5 -186t-1.5 -188h-35q-3 92 -27.5 128
t-94.5 46t-249 10q-115 0 -180 -10l-4 -142q-7 -260 18 -401q18 -5 43 -11t47.5 -9.5t64.5 -7t105 -3.5q157 0 246.5 23t137 74t81.5 147zM543 1739h90l199 -356h-47l-195 215l-199 -215h-47z" />
    <glyph glyph-name="Aacute" unicode="&#xc1;" horiz-adv-x="1280" 
d="M864 -4v33q46 8 73.5 21t27.5 44q0 29 -18 84t-27 76l-74 201q-58 8 -189 8h-79q-119 4 -209 -12l-74 -185q-49 -116 -49 -145q0 -35 31.5 -58.5t128.5 -37.5v-33q-117 14 -199 14q-84 0 -182 -8v29q60 15 92 47q24 21 63.5 99.5t80 171t58.5 144.5l160 383
q30 69 61.5 144.5t59.5 151.5t41 122q0 13 6 19l33 2q31 -111 68 -213l210 -563q81 -211 122.5 -311.5t72.5 -143.5q26 -37 107 -45v-35q-82 8 -158 8q-60 0 -111.5 -3t-81.5 -5.5t-45 -3.5zM547 897l-113 -291q-23 -62 -31 -78q76 -12 175 -12l92 2q83 0 149 4
q-35 102 -45 121l-72 184q-12 30 -45.5 109t-48.5 108q-19 -42 -32.5 -76.5t-28.5 -70.5zM552 1382l197 356h139l-288 -356h-48z" />
    <glyph glyph-name="Edieresis" unicode="&#xcb;" horiz-adv-x="1153" 
d="M1075 293h31q-16 -104 -35 -172.5t-49 -130.5q-33 3 -90 4.5t-160 1.5q-62 0 -133 2t-61 2q-65 0 -151.5 -1.5t-208.5 -5.5t-179 -7l2 34q31 7 63 15.5t43.5 18.5t16.5 24.5t10 52.5q6 38 11.5 137.5t9 223.5t2.5 155l-7 318q-3 148 -11.5 200t-32.5 69t-91 30q0 16 2 26
h641q108 0 326 8q-5 -86 -18 -172t-33 -86q-25 0 -25 15q0 6 4 38t4 37q0 73 -87.5 93t-209.5 20q-147 0 -307 -20q-18 -166 -18 -279q0 -74 1 -170t1 -90q24 -2 147 -2q212 0 291 8q45 5 60.5 12t29.5 35.5t31 87.5l29 -2q0 -104 -0.5 -186t-1.5 -188h-35q-3 92 -27.5 128
t-94.5 46t-249 10q-115 0 -180 -10l-4 -142q-7 -260 18 -401q18 -5 43 -11t47.5 -9.5t64.5 -7t105 -3.5q157 0 246.5 23t137 74t81.5 147zM670 1508q0 32 23 55t53 23q33 0 55.5 -23.5t22.5 -54.5q0 -30 -23 -53t-55 -23q-31 0 -53.5 22.5t-22.5 53.5zM352 1508
q0 31 22.5 54.5t55.5 23.5q34 0 55 -23.5t21 -54.5q0 -29 -21.5 -52.5t-54.5 -23.5q-32 0 -55 23t-23 53z" />
    <glyph glyph-name="Egrave" unicode="&#xc8;" horiz-adv-x="1153" 
d="M1075 293h31q-16 -104 -35 -172.5t-49 -130.5q-33 3 -90 4.5t-160 1.5q-62 0 -133 2t-61 2q-65 0 -151.5 -1.5t-208.5 -5.5t-179 -7l2 34q31 7 63 15.5t43.5 18.5t16.5 24.5t10 52.5q6 38 11.5 137.5t9 223.5t2.5 155l-7 318q-3 148 -11.5 200t-32.5 69t-91 30q0 16 2 26
h641q108 0 326 8q-5 -86 -18 -172t-33 -86q-25 0 -25 15q0 6 4 38t4 37q0 73 -87.5 93t-209.5 20q-147 0 -307 -20q-18 -166 -18 -279q0 -74 1 -170t1 -90q24 -2 147 -2q212 0 291 8q45 5 60.5 12t29.5 35.5t31 87.5l29 -2q0 -104 -0.5 -186t-1.5 -188h-35q-3 92 -27.5 128
t-94.5 46t-249 10q-115 0 -180 -10l-4 -142q-7 -260 18 -401q18 -5 43 -11t47.5 -9.5t64.5 -7t105 -3.5q157 0 246.5 23t137 74t81.5 147zM509 1738l196 -356h-47l-289 356h140z" />
    <glyph glyph-name="Iacute" unicode="&#xcd;" horiz-adv-x="641" 
d="M41 1253v43q113 -6 141 -8q102 -4 137 -4q12 0 104 4t173 8v-47q-88 0 -120 -9.5t-48 -37.5q-33 -63 -33 -481q0 -288 0.5 -364.5t3.5 -163.5q2 -70 11 -99t49 -43.5t129 -15.5l-4 -39q-14 0 -55.5 1.5t-86 2.5t-68.5 1.5t-55 0.5q-44 0 -73.5 -0.5t-78.5 -1.5
t-88.5 -2.5t-47.5 -1.5l-2 37q108 6 146 25t52 61q20 54 25.5 204.5t5.5 317.5q0 151 -10 434q-3 78 -15.5 111.5t-56 49.5t-135.5 17zM180 1382l197 356h139l-288 -356h-48z" />
    <glyph glyph-name="Icircumflex" unicode="&#xce;" horiz-adv-x="641" 
d="M41 1253v43q113 -6 141 -8q102 -4 137 -4q12 0 104 4t173 8v-47q-88 0 -120 -9.5t-48 -37.5q-33 -63 -33 -481q0 -288 0.5 -364.5t3.5 -163.5q2 -70 11 -99t49 -43.5t129 -15.5l-4 -39q-14 0 -55.5 1.5t-86 2.5t-68.5 1.5t-55 0.5q-44 0 -73.5 -0.5t-78.5 -1.5
t-88.5 -2.5t-47.5 -1.5l-2 37q108 6 146 25t52 61q20 54 25.5 204.5t5.5 317.5q0 151 -10 434q-3 78 -15.5 111.5t-56 49.5t-135.5 17zM277 1739h90l199 -356h-47l-195 215l-199 -215h-47z" />
    <glyph glyph-name="Idieresis" unicode="&#xcf;" horiz-adv-x="641" 
d="M41 1253v43q113 -6 141 -8q102 -4 137 -4q12 0 104 4t173 8v-47q-88 0 -120 -9.5t-48 -37.5q-33 -63 -33 -481q0 -288 0.5 -364.5t3.5 -163.5q2 -70 11 -99t49 -43.5t129 -15.5l-4 -39q-14 0 -55.5 1.5t-86 2.5t-68.5 1.5t-55 0.5q-44 0 -73.5 -0.5t-78.5 -1.5
t-88.5 -2.5t-47.5 -1.5l-2 37q108 6 146 25t52 61q20 54 25.5 204.5t5.5 317.5q0 151 -10 434q-3 78 -15.5 111.5t-56 49.5t-135.5 17zM404 1508q0 32 23 55t53 23q33 0 55.5 -23.5t22.5 -54.5q0 -30 -23 -53t-55 -23q-31 0 -53.5 22.5t-22.5 53.5zM86 1508q0 31 22.5 54.5
t55.5 23.5q34 0 55 -23.5t21 -54.5q0 -29 -21.5 -52.5t-54.5 -23.5q-32 0 -55 23t-23 53z" />
    <glyph glyph-name="Igrave" unicode="&#xcc;" horiz-adv-x="641" 
d="M41 1253v43q113 -6 141 -8q102 -4 137 -4q12 0 104 4t173 8v-47q-88 0 -120 -9.5t-48 -37.5q-33 -63 -33 -481q0 -288 0.5 -364.5t3.5 -163.5q2 -70 11 -99t49 -43.5t129 -15.5l-4 -39q-14 0 -55.5 1.5t-86 2.5t-68.5 1.5t-55 0.5q-44 0 -73.5 -0.5t-78.5 -1.5
t-88.5 -2.5t-47.5 -1.5l-2 37q108 6 146 25t52 61q20 54 25.5 204.5t5.5 317.5q0 151 -10 434q-3 78 -15.5 111.5t-56 49.5t-135.5 17zM280 1738l196 -356h-47l-289 356h140z" />
    <glyph glyph-name="Oacute" unicode="&#xd3;" horiz-adv-x="1516" 
d="M84 645q0 182 96.5 336t256.5 244t339 90q122 0 241 -48t213 -134.5t150 -211.5t56 -272q0 -179 -89 -334.5t-247.5 -247.5t-358.5 -92q-153 0 -276 60t-209.5 162t-129 218.5t-42.5 229.5zM233 721q0 -175 82 -331t220 -249.5t292 -93.5q114 0 218.5 56.5t171.5 174.5
t67 291q0 138 -44.5 262t-124 217.5t-183.5 145t-219 51.5q-126 0 -236 -62.5t-177 -182.5t-67 -279zM628 1382l197 356h139l-288 -356h-48z" />
    <glyph glyph-name="Ocircumflex" unicode="&#xd4;" horiz-adv-x="1516" 
d="M84 645q0 182 96.5 336t256.5 244t339 90q122 0 241 -48t213 -134.5t150 -211.5t56 -272q0 -179 -89 -334.5t-247.5 -247.5t-358.5 -92q-153 0 -276 60t-209.5 162t-129 218.5t-42.5 229.5zM233 721q0 -175 82 -331t220 -249.5t292 -93.5q114 0 218.5 56.5t171.5 174.5
t67 291q0 138 -44.5 262t-124 217.5t-183.5 145t-219 51.5q-126 0 -236 -62.5t-177 -182.5t-67 -279zM715 1739h90l199 -356h-47l-195 215l-199 -215h-47z" />
    <glyph glyph-name="apple" unicode="&#xf000;" horiz-adv-x="1618" 
d="M1154 1596q1 -38 1 -60q0 -94 -46.5 -166t-155.5 -133q-36 -21 -125 -27q-2 22 -2 33q0 60 42.5 144.5t119.5 140.5q55 40 166 68zM1454 1063q-95 -67 -134 -132q-55 -92 -55 -201q0 -96 55 -183.5t177 -148.5q-124 -270 -235 -364q-77 -65 -175 -65q-51 0 -127.5 29.5
t-118.5 29.5q-51 0 -128.5 -29.5t-121.5 -29.5q-107 0 -200 93q-131 132 -202.5 324t-71.5 350q0 182 92 312q120 170 363 170q71 0 144 -31.5t119 -31.5q26 0 45 5t84.5 32t143.5 27q113 0 190.5 -36t155.5 -120z" />
    <glyph glyph-name="Ograve" unicode="&#xd2;" horiz-adv-x="1516" 
d="M84 645q0 182 96.5 336t256.5 244t339 90q122 0 241 -48t213 -134.5t150 -211.5t56 -272q0 -179 -89 -334.5t-247.5 -247.5t-358.5 -92q-153 0 -276 60t-209.5 162t-129 218.5t-42.5 229.5zM233 721q0 -175 82 -331t220 -249.5t292 -93.5q114 0 218.5 56.5t171.5 174.5
t67 291q0 138 -44.5 262t-124 217.5t-183.5 145t-219 51.5q-126 0 -236 -62.5t-177 -182.5t-67 -279zM706 1738l196 -356h-47l-289 356h140z" />
    <glyph glyph-name="Uacute" unicode="&#xda;" horiz-adv-x="1473" 
d="M43 1245l4 37q47 -2 143 -2q170 0 334 8l11 -33q-93 -11 -125.5 -27t-47.5 -44q-30 -56 -30 -469q0 -142 4 -250t16 -168q33 -151 161 -200.5t239 -49.5q63 0 151 18t167 65t106 128q55 160 55 629q0 140 -8.5 210.5t-27.5 102t-48 38.5t-92 7l-4 35q45 6 100 6
q215 0 289 -2v-41q-69 -3 -94.5 -15t-31 -43t-7.5 -132q-3 -189 -9 -335.5t-15 -241t-25.5 -168.5t-40.5 -120q-46 -85 -143 -132t-196 -61.5t-180 -14.5q-135 0 -249 40.5t-186.5 134.5t-72.5 242q0 36 2.5 197t2.5 240q0 277 -27 368q-7 23 -23.5 28.5t-101.5 14.5z
M659 1382l197 356h139l-288 -356h-48z" />
    <glyph glyph-name="Ucircumflex" unicode="&#xdb;" horiz-adv-x="1473" 
d="M43 1245l4 37q47 -2 143 -2q170 0 334 8l11 -33q-93 -11 -125.5 -27t-47.5 -44q-30 -56 -30 -469q0 -142 4 -250t16 -168q33 -151 161 -200.5t239 -49.5q63 0 151 18t167 65t106 128q55 160 55 629q0 140 -8.5 210.5t-27.5 102t-48 38.5t-92 7l-4 35q45 6 100 6
q215 0 289 -2v-41q-69 -3 -94.5 -15t-31 -43t-7.5 -132q-3 -189 -9 -335.5t-15 -241t-25.5 -168.5t-40.5 -120q-46 -85 -143 -132t-196 -61.5t-180 -14.5q-135 0 -249 40.5t-186.5 134.5t-72.5 242q0 36 2.5 197t2.5 240q0 277 -27 368q-7 23 -23.5 28.5t-101.5 14.5z
M749 1739h90l199 -356h-47l-195 215l-199 -215h-47z" />
    <glyph glyph-name="Ugrave" unicode="&#xd9;" horiz-adv-x="1473" 
d="M43 1245l4 37q47 -2 143 -2q170 0 334 8l11 -33q-93 -11 -125.5 -27t-47.5 -44q-30 -56 -30 -469q0 -142 4 -250t16 -168q33 -151 161 -200.5t239 -49.5q63 0 151 18t167 65t106 128q55 160 55 629q0 140 -8.5 210.5t-27.5 102t-48 38.5t-92 7l-4 35q45 6 100 6
q215 0 289 -2v-41q-69 -3 -94.5 -15t-31 -43t-7.5 -132q-3 -189 -9 -335.5t-15 -241t-25.5 -168.5t-40.5 -120q-46 -85 -143 -132t-196 -61.5t-180 -14.5q-135 0 -249 40.5t-186.5 134.5t-72.5 242q0 36 2.5 197t2.5 240q0 277 -27 368q-7 23 -23.5 28.5t-101.5 14.5z
M695 1738l196 -356h-47l-289 356h140z" />
    <glyph glyph-name="dotlessi" unicode="&#x131;" horiz-adv-x="492" 
d="M66 -4l4 31q85 8 96 30q5 9 9 71.5t6.5 149t2.5 97.5q0 142 -4.5 182t-17.5 55q-4 5 -50 10t-46 13q0 16 18 20q119 37 233 131q7 0 19 -4q-10 -41 -17 -120t-11.5 -166t-4.5 -154q0 -50 3.5 -143.5t12.5 -126.5q8 -18 20 -23t48 -8q35 -1 70 -6l12 -29z" />
    <glyph glyph-name="circumflex" unicode="&#x2c6;" horiz-adv-x="682" 
d="M297 1245h90l199 -356h-47l-195 215l-199 -215h-47z" />
    <glyph glyph-name="tilde" unicode="&#x2dc;" horiz-adv-x="682" 
d="M580 1126h41q-3 -125 -59.5 -161.5t-104.5 -36.5q-38 0 -67.5 12t-102.5 55q-39 24 -55.5 31.5t-38.5 7.5q-36 0 -63 -26.5t-26 -79.5h-41q17 198 166 198q39 0 68 -13.5t82 -47.5q49 -30 66.5 -38.5t41.5 -8.5q36 0 64 28t29 80z" />
    <glyph glyph-name="macron" unicode="&#x2c9;" horiz-adv-x="682" 
d="M59 1073h564v-74h-564v74z" />
    <glyph glyph-name="breve" unicode="&#x2d8;" horiz-adv-x="682" 
d="M535 1204h40q-8 -144 -78.5 -210t-154.5 -66q-88 0 -157 69t-76 207h41q17 -94 71 -128t121 -34q163 0 193 162z" />
    <glyph glyph-name="dotaccent" unicode="&#x2d9;" horiz-adv-x="682" 
d="M264 1014q0 32 22 55t54 23q34 0 56 -23t22 -55q0 -29 -22.5 -52.5t-55.5 -23.5q-31 0 -53.5 22.5t-22.5 53.5z" />
    <glyph glyph-name="ring" unicode="&#x2da;" horiz-adv-x="682" 
d="M182 1071q0 66 47 112t113 46q67 0 113.5 -46.5t46.5 -111.5q0 -43 -21 -79.5t-57.5 -58.5t-81.5 -22q-66 0 -113 47t-47 113zM233 1071q0 -43 32.5 -75.5t76.5 -32.5t76.5 31.5t32.5 76.5q0 44 -31.5 76.5t-77.5 32.5q-47 0 -78 -32t-31 -77z" />
    <glyph glyph-name="cedilla" unicode="&#xb8;" horiz-adv-x="682" 
d="M377 20h51l-51 -96q143 -46 143 -157q0 -65 -46.5 -114.5t-129.5 -75t-180 -19.5v41q156 4 204 46t48 85q0 98 -158 106q110 165 119 184z" />
    <glyph glyph-name="hungarumlaut" unicode="&#x2dd;" horiz-adv-x="682" 
d="M518 1245h139l-290 -358h-45zM270 1245h142l-293 -358h-45z" />
    <glyph glyph-name="ogonek" unicode="&#x2db;" horiz-adv-x="682" 
d="M498 -375l14 -33q-43 -21 -73.5 -31t-71.5 -10q-101 0 -151 62t-50 135q0 70 40 130.5t116 133.5h51q-54 -54 -80.5 -101.5t-26.5 -111.5q0 -94 48 -142t106 -48q33 0 78 16z" />
    <glyph glyph-name="caron" unicode="&#x2c7;" horiz-adv-x="682" 
d="M408 889h-91l-198 356h47l196 -217l197 217h47z" />
    <glyph glyph-name="Scaron" unicode="&#x160;" horiz-adv-x="961" 
d="M127 -4l-41 2q2 139 -55 334q24 7 32 8q24 -75 37.5 -108.5t35 -59t59.5 -45.5q65 -34 150 -61t183 -27q85 0 170.5 42t85.5 185q0 72 -25 124t-65.5 84t-94 57t-138.5 57q-118 43 -194.5 88t-121.5 111t-45 161q0 151 111 251.5t317 100.5q105 0 207 -22q41 -8 51 -8
q30 0 60 20l8 4q8 0 20 -4q-3 -23 -5.5 -45.5t-5 -49.5t-3.5 -42t-2 -20q13 -121 12 -132l-30 -2q-8 102 -67 160.5t-133 79.5t-142 21q-166 0 -219.5 -86.5t-53.5 -163.5q0 -81 40 -134.5t99.5 -84t167.5 -72.5q122 -48 196 -88.5t132 -117t58 -189.5q0 -96 -50 -173
t-150 -122t-245 -45q-141 0 -293 41q-27 6 -33 6q-26 0 -20 -35zM547 1383h-91l-198 356h47l196 -217l197 217h47z" />
    <glyph glyph-name="scaron" unicode="&#x161;" horiz-adv-x="662" 
d="M55 225l35 -2q0 -19 32.5 -62t87.5 -77.5t120 -34.5q47 0 94 20t47 87q0 70 -49 113q-49 42 -111 73l-75 35q-66 34 -105 72q-39 37 -39 96q0 46 33 96.5t95.5 83.5t141.5 33q48 0 160 -15l33 -170h-35q-9 35 -41.5 66.5t-76 53.5t-74.5 22q-53 0 -86 -33t-33 -84
q0 -41 24 -65q24 -25 91 -58l61 -29q83 -39 142 -91q59 -53 59 -146q0 -35 -14.5 -74.5t-43.5 -56.5q-83 -53 -137 -68.5t-110 -15.5q-20 0 -57 5t-52 8t-52 14t-48 14q8 40 8 57q0 25 -8.5 68.5t-16.5 64.5zM381 889h-91l-198 356h47l196 -217l197 217h47z" />
    <glyph glyph-name="brokenbar" unicode="&#xa6;" horiz-adv-x="1087" 
d="M554 1479h134v-603h-134v603zM554 322h134v-603h-134v603z" />
    <glyph glyph-name="Eth" unicode="&#xd0;" horiz-adv-x="1473" 
d="M41 4v37q60 0 89.5 12t38.5 33.5t13 65.5q10 73 11.5 163.5t1.5 307.5h-154v59h154q-2 246 -6 352t-21 150q-20 58 -117 55l-2 37q268 0 451 22q71 9 143 9q146 0 283.5 -44t242 -127.5t165.5 -206t61 -270.5q0 -136 -53.5 -256.5t-151.5 -208.5t-239 -139t-314 -51
q-12 0 -77 2t-77 2q-38 0 -68.5 -0.5t-87.5 -1.5t-110.5 -2.5t-73.5 -1.5zM696 682v-59h-362q0 -28 1.5 -109.5t2.5 -168t1.5 -133.5t0.5 -106q101 -32 155 -44.5t136 -12.5q302 0 446 181.5t144 428.5q0 189 -90 325.5t-230 206t-287 69.5q-144 0 -260 -52
q-9 -50 -14.5 -229t-5.5 -297h362z" />
    <glyph glyph-name="eth" unicode="&#xf0;" horiz-adv-x="1044" 
d="M569 1085l-278 -104l-17 41l269 100q-28 35 -62.5 71t-89 75t-135.5 80l23 38q133 -61 213 -119.5t131 -115.5l215 82l16 -41l-201 -74q114 -130 193.5 -303t79.5 -377q0 -159 -60.5 -260t-153 -145.5t-190.5 -44.5t-191 45.5t-151.5 133t-58.5 202.5q0 132 61.5 222
t150.5 132.5t173 42.5q129 0 237 -98l5 4q-22 125 -80.5 241.5t-98.5 171.5zM252 438q0 -75 21 -146t61.5 -132t92.5 -94t114 -33q109 0 178 90.5t69 220.5q0 88 -38 176.5t-107.5 144.5t-155.5 56q-67 0 -121 -38t-84 -103t-30 -142z" />
    <glyph glyph-name="Yacute" unicode="&#xdd;" 
d="M18 1249l-6 35h99q73 -3 107.5 -4.5t39.5 -1.5q28 0 75 2t113 4l48 -2l-5 -39q-70 -6 -95 -12t-25 -27q0 -22 74.5 -129t172 -235t138.5 -176q30 41 90 129l76 114q40 58 89.5 146.5t49.5 124.5q0 72 -135 65l4 39l84 -4q10 0 66 -2t65 -2q15 0 98 2t98 2l-2 -41
q-66 -3 -107 -22.5t-94 -83.5t-145 -203l-110 -166l-105 -164l4 -324q0 -120 3.5 -159.5t16.5 -52.5t52 -23q34 -7 106 -27l-2 -26q8 0 -75 6l-62 4q-40 4 -65 4h-43q-15 0 -121 -8q-85 -10 -123 -10v32q104 4 139 41q16 14 22 38t8.5 107t2.5 265q0 100 -2 123l-82 121
q-61 87 -116 161t-89 113q-107 135 -153 184.5t-79 64t-100 17.5zM606 1382l197 356h139l-288 -356h-48z" />
    <glyph glyph-name="yacute" unicode="&#xfd;" horiz-adv-x="831" 
d="M23 698v31q49 -6 137 -6q103 0 205 12l-3 -37q-41 -8 -59 -18.5t-18 -40.5q0 -48 43 -208t102 -318l66 118q43 74 102 206t59 181q0 70 -139 87l14 32q119 -12 207 -12q65 0 99 6l-2 -33q-27 -4 -48.5 -20.5t-40 -46t-40.5 -74.5l-109 -225q-2 -5 -76 -148
q-107 -210 -160.5 -334t-78 -206t-56.5 -217h-213v34q66 15 106 46.5t72 86t80 164.5l78 174q-57 215 -105 378t-91 265q-20 52 -40.5 77.5t-38 32t-52.5 13.5zM339 889l197 356h139l-288 -356h-48z" />
    <glyph glyph-name="Thorn" unicode="&#xde;" horiz-adv-x="1087" 
d="M98 -18h-28v30q78 21 101 35t28 41q1 6 3 31.5t4 82.5t2.5 96t0.5 118q0 242 -2 328t-10 296q-3 126 -26 166t-122 41q-2 10 -2 21q0 10 2 18q16 0 104 -2t105 -2q63 0 127 1.5t109 4.5q2 -8 2 -18q0 -13 -4 -23q-67 -7 -92.5 -17.5t-37 -45t-16.5 -117.5q87 6 119 6
q140 0 248 -38.5t177.5 -101.5t103.5 -137t34 -147q0 -76 -46.5 -169t-174 -164.5t-352.5 -71.5q-32 0 -59 2t-52 4q4 -101 8 -134t20.5 -53.5t52 -27.5t110.5 -12v-41q-41 3 -69 5.5t-67 4.5q-34 2 -100 2q-33 0 -98 -6q-44 -2 -70.5 -4t-32.5 -2zM344 317q83 -20 160 -20
q176 0 270 97.5t94 244.5q0 57 -25.5 144t-111.5 163t-248 76q-78 0 -139 -23q-3 -48 -4.5 -136t-1.5 -197q0 -173 6 -349z" />
    <glyph glyph-name="thorn" unicode="&#xfe;" horiz-adv-x="981" 
d="M43 1212l-2 31q5 0 29 12q169 74 241 123h31q-48 -172 -41 -710l86 34q31 15 98 35.5t103 20.5q76 0 151.5 -49t122.5 -132t47 -178q0 -116 -54 -196.5t-133.5 -126t-152.5 -63t-120 -17.5q-60 0 -148 29q-4 -170 -4 -224v-182q0 -64 5 -91t18.5 -34.5t46.5 -9.5l73 -4
q25 0 25 -19q0 -16 -14 -16h-99q-34 0 -286 -16l-5 30q51 4 68 14.5t27 34.5q16 41 21 175t5 278l2 125q3 272 1 653.5t-23 438.5q-13 39 -74 39q-10 0 -45 -5zM299 627l-2 -506l92 -31q56 -19 89 -27t57 -8q48 0 110 26t107 83.5t45 146.5q0 107 -48.5 192.5t-119 134
t-129.5 48.5q-25 0 -67.5 -13.5t-133.5 -45.5z" />
    <glyph glyph-name="multiply" unicode="&#xd7;" 
d="M208 1200l413 -413l413 413l94 -94l-413 -413l412 -413l-94 -94l-412 413l-412 -412l-94 94l412 412l-413 413z" />
    <glyph glyph-name="onesuperior" unicode="&#xb9;" horiz-adv-x="641" 
d="M137 608l-2 37q54 -1 78.5 6.5t34.5 28.5q9 16 13.5 90t5.5 144.5t1 136.5q0 145 -10 157q-12 15 -117 15l-2 32q27 2 76.5 4t83 5t83 9.5t93.5 12.5l10 -33q-65 -14 -80.5 -22t-19.5 -31q-16 -96 -16 -328q0 -181 14 -204q10 -18 123 -25l-2 -35q-108 6 -133 6
q-120 0 -234 -6z" />
    <glyph glyph-name="twosuperior" unicode="&#xb2;" horiz-adv-x="641" 
d="M39 608l-14 19l94 84q293 255 293 381q0 56 -39.5 87t-96.5 31q-56 0 -87.5 -17t-63.5 -46l-37 29q109 106 234 106q56 0 102 -20t72 -57t26 -85q0 -69 -46.5 -130t-162.5 -167l-143 -131l166 -2q83 0 116 5t57 25.5t56 74.5l41 -21l-69 -115q-35 -59 -45 -71h-37
q-4 16 -12 20t-35 4h-279q-51 0 -90 -4z" />
    <glyph glyph-name="threesuperior" unicode="&#xb3;" horiz-adv-x="641" 
d="M143 1167l-30 31q112 82 211 82q51 0 90 -15.5t61.5 -44t22.5 -65.5q0 -44 -25 -78t-67 -71q60 -32 102.5 -73t42.5 -106q0 -52 -34 -104.5t-98.5 -84.5t-144.5 -32q-46 0 -107 17.5t-112 78.5q15 18 40.5 57.5l25.5 39.5l43 -23q-17 -24 -17 -31q0 -24 58 -60t110 -36
q58 0 101 38t43 95q0 56 -38 92.5t-102 69.5l-40 -24l-29 30q75 50 110 86.5t35 83.5q0 44 -33.5 72.5t-80.5 28.5q-62 0 -138 -54z" />
    <glyph glyph-name="onehalf" unicode="&#xbd;" horiz-adv-x="1409" 
d="M285 -90l-29 12q53 77 181 298t292 522.5t324 619.5q47 3 94 18q-31 -58 -67 -119.5t-96 -163.5t-90 -154t-73 -132l-217 -408q-18 -32 -124 -238.5t-109 -213.5q-48 -10 -86 -41zM129 608l-2 37q54 -1 78.5 7t34.5 28q9 16 13.5 90t5.5 144.5t1 136.5q0 145 -10 157
q-12 15 -117 15l-2 32q29 2 76.5 4t81.5 5t85 9.5t93 12.5l10 -33q-65 -14 -80.5 -22t-19.5 -31q-13 -68 -15 -141t-2 -187q0 -42 3.5 -116t11.5 -88q10 -18 123 -25l-2 -35q-108 6 -134 6q-76 0 -117.5 -1t-115.5 -5zM795 -6l-15 18l94 84q123 109 208 208.5t85 172.5
q0 58 -38.5 88.5t-96.5 30.5q-90 0 -151 -64l-37 29q44 44 98 75.5t135 31.5q86 0 143.5 -44.5t57.5 -117.5q0 -69 -46.5 -130t-162.5 -167l-143 -131l166 -2q83 0 116 4.5t57.5 26t55.5 73.5l41 -20l-70 -115q-28 -49 -45 -72h-37q-3 17 -14 23q-6 2 -33 2h-278
q-51 0 -90 -4z" />
    <glyph glyph-name="onequarter" unicode="&#xbc;" horiz-adv-x="1409" 
d="M948 -4l-2 37q71 0 94 14q10 4 12 20.5t7 106.5v29h-119q-7 0 -201 -8l-12 18q138 146 226 247.5t165 215.5q20 4 53 14q-4 -49 -4.5 -127.5t-1.5 -148.5l-2 -154q65 3 82.5 7.5t40.5 25.5l35 -12l-45 -84q-27 2 -113 4q-1 -76 3.5 -110.5t19 -44.5t49.5 -15l-2 -31
q-229 0 -285 -4zM926 356l-88 -96h223l2 84q2 62 2 172q-22 -26 -42.5 -49.5t-50 -57.5t-46.5 -53zM127 608l-2 37q54 -1 78.5 7t34.5 28q20 43 20 371q0 145 -10 157q-12 15 -119 15v32q182 5 307 27q3 0 14 2t13 2l12 -33q-67 -14 -82 -22t-18 -31q-17 -126 -17 -328
q0 -184 15 -204q10 -18 123 -25l-2 -35q-108 6 -134 6q-76 0 -119 -1t-114 -5zM285 -90l-29 12q53 77 181 298t292 522.5t324 619.5q47 3 94 18q-31 -58 -67 -120t-96 -164t-85.5 -146t-77.5 -139l-217 -408q-18 -32 -124 -238.5t-109 -213.5q-48 -10 -86 -41z" />
    <glyph glyph-name="threequarters" unicode="&#xbe;" horiz-adv-x="1409" 
d="M948 -4l-2 37q71 0 94 14q10 4 12 20.5t7 106.5v29h-119q-7 0 -201 -8l-12 18q138 146 226 247.5t165 215.5q20 4 53 14q-4 -49 -4.5 -127.5t-1.5 -148.5l-2 -154q65 3 82.5 7.5t40.5 25.5l35 -12l-45 -84q-27 2 -113 4q-1 -76 3.5 -110.5t19 -44.5t49.5 -15l-2 -31
q-229 0 -285 -4zM926 356l-88 -96h223l2 84q2 62 2 172q-22 -26 -42.5 -49.5t-50 -57.5t-46.5 -53zM133 1167l-31 31q115 82 211 82q50 0 89.5 -15.5t62 -44t22.5 -65.5q0 -69 -92 -149q62 -33 104 -73.5t42 -105.5q0 -52 -34 -104.5t-98.5 -84.5t-144.5 -32
q-46 0 -107 17.5t-112 78.5q21 32 33.5 51.5t21.5 28.5q3 3 5.5 7.5t5.5 9.5l43 -23q-17 -23 -17 -31q0 -24 57 -60t111 -36q58 0 101 38t43 95q0 56 -38 92.5t-102 69.5l-41 -24l-28 30q75 50 110 86.5t35 83.5q0 44 -34 72.5t-83 28.5q-59 0 -135 -54zM285 -90l-29 12
q53 77 181 298t292 522.5t324 619.5q47 3 94 18q-31 -58 -67 -120t-96 -164t-85.5 -146t-77.5 -139l-217 -408q-18 -32 -124 -238.5t-109 -213.5q-48 -10 -86 -41z" />
    <glyph glyph-name="currency" unicode="&#xa4;" horiz-adv-x="1468" 
d="M301 1200l133 -131q67 48 134.5 77.5t166.5 29.5q100 0 169.5 -31t131.5 -78l133 133l66 -67l-133 -132q44 -57 75 -129t31 -176q0 -98 -28 -164t-78 -133l133 -133l-66 -65l-133 133q-54 -38 -85.5 -56.5t-87 -35.5t-128.5 -17q-74 0 -129.5 17t-92.5 39t-79 53
l-133 -133l-68 65l136 133q-31 42 -53 79t-39 92.5t-17 129.5q0 73 17 128.5t35.5 87t56.5 85.5l-136 132zM1114 700q0 101 -51 189t-139 139t-189 51t-189 -51t-139 -139t-51 -189t51 -188.5t139 -138.5t189 -51t189 51t139 138.5t51 188.5z" />
    </font>
</defs>
</svg>
